Rafe Spall | Vol.17 chapter 99 | New Animation Movies 2018 Full Movies English | kids Movies | Disney Movies | Comedy Movies |

Скачать через торрент музыку Burning Spear - Mek We Dweet - 1990, WavPack бесплатно без регистрации torrent

Статистика раздачи
Размер:  283 MB   |    Зарегистрирован:  4 года 10 месяцев   |    .torrent скачан:  61 раз   |   
Раздают:  1  
   
загрузка...
 
Автор Сообщение

Polarnik

avatar Polarnik


Burning Spear / Mek We Dweet

Жанр: Reggae
Страна-производитель диска: USA
Год издания: 1990
Издатель (лейбл): Mango
Номер по каталогу: I2 39863
Страна: Jamaica
Аудиокодек: WavPack (*.wv)
Тип рипа: image+.cue
Битрейт аудио: lossless
Продолжительность: 42:39
Источник (релизер): bINkI
Наличие сканов в содержимом раздачи: да
Треклист:

"Mek We Dweet"
"Civilization"
"Garvey"
"Elephants"
"My Roots"
"Take A Look"
"Great Men"
"One People"
"African Women"
"Mek We Dweet In Dub"
Exact Audio Copy V0.99 prebeta 5 from 4. May 2009

EAC extraction logfile from 16. August 2013, 16:25

Burning Spear / Mek We Dweet

Used drive : PIONEER DVD-RW DVR-110D Adapter: 1 ID: 0

Read mode : SecureUtilize accurate stream : YesDefeat audio cache : YesMake use of C2 pointers : No

Read offset correction : 48Overread into Lead-In and Lead-Out : NoFill up missing offset samples with silence : YesDelete leading and trailing silent blocks : NoNull samples used in CRC calculations : YesUsed interface : Installed external ASPI interface

Used output format : Internal WAV RoutinesSample format : 44.100 Hz; 16 Bit; Stereo

TOC of the extracted CD

Track | Start | Length | Start sector | End sector --------------------------------------------------------- 1 | 0:00.32 | 4:20.43 | 32 | 19574 2 | 4:21.00 | 4:06.65 | 19575 | 38089 3 | 8:27.65 | 4:12.17 | 38090 | 57006 4 | 12:40.07 | 3:53.00 | 57007 | 74481 5 | 16:33.07 | 4:21.05 | 74482 | 94061 6 | 20:54.12 | 4:33.20 | 94062 | 114556 7 | 25:27.32 | 4:11.70 | 114557 | 133451 8 | 29:39.27 | 4:12.10 | 133452 | 152361 9 | 33:51.37 | 4:18.68 | 152362 | 171779 10 | 38:10.30 | 4:28.55 | 171780 | 191934

Range status and errors

Selected range

Filename D:\R\Burning Spear - Mek We Dweet.wav

Peak level 98.5 % Range quality 100.0 % Test CRC 5707A793 Copy CRC 5707A793 Copy OK

No errors occurred

AccurateRip summary

Track 1 not present in databaseTrack 2 not present in databaseTrack 3 not present in databaseTrack 4 not present in databaseTrack 5 not present in databaseTrack 6 not present in databaseTrack 7 not present in databaseTrack 8 not present in databaseTrack 9 not present in databaseTrack 10 not present in database

None of the tracks are present in the AccurateRip database

End of status report
One of the finest and best-selling reggae singers of the 1970s, Burning Spear (aka Winston Rodney) successfully entered the ''90s with Mek We Dweet. Though not quite on a par with such ''70s gems as Marcus Garvey and Man in the Hills, Dweet proved that Spear could still deliver a thoroughly satisfying album. In contrast to reggae singers who, in 1990, were incorporating heavy doses of dancehall, Spear wisely sticks with the type of earthy, simple reggae that earned him so devoted a following in the ''70s. Cuts like "Elephant," "Garvey" (one of his many odes to Marcus Garvey), and "My Roots" aren''t much different from what Spear was doing 15 years earlier and leave no doubt that he was intent on remaining true to himself.
Mek We Dweet is a studio album by Jamaican reggae singer Burning Spear.

It was nominated for a Grammy Award for Best Reggae Album at the 33rd Grammy Awards in 1991.
Winston Rodney - vocals, repeater, bass drum
Paul Beckford - bass
Nelson Miller - drums
Lenford Richards - lead guitar, piano, funde
Lenval Jarrett - rhythm guitar
Alvin Haughton - percussion
Charles Dickey - trombone ("Great Men," "Garvey")
James Smith - trumpet ("Great Men," "Garvey")
David Robinson - saxophone ("Great Men," "Garvey")

Additional Musicians

Robbie Lyn - synthesizers, piano
Dean Fraser - saxophone
Ronald "Nambo" Robinson - trombone
Junior "Chico" Chin - trumpet


Трекер:  [ 25-Сен-2013 08:09 ]

  

Скачать .torrent

Размер .torrent файла 12 KB


Размер: 283 MB
Хэш (hash) релиза: df90a4b974186e2610e57420761091d825b74aa6

Еще никто не оставлял запись к записи скачать торрент Burning Spear - Mek We Dweet - 1990, WavPack . Будь первым!

!Обратная связь