Télécharger Ah! My Goddess - Le Film | Children Of The ... | Abacus - Pequeno o Bastante Para Condenar - Legendado Documentário Idioma: Inglês 2018 AVI / MKV Torrent DownloadVídeo 10 / Áudio 10CompletoSinopse: Após a crise financeira das hipotecas que assolou os Estados Unidos em 2008, apenas uma única empresa foi indiciada pelo ocorrido, o banco Abacus,...

Скачать через торрент музыку Salmonella Dub - Freak Controller - 2009, FLAC бесплатно без регистрации torrent

Статистика раздачи
Размер:  447 MB   |    Зарегистрирован:  4 года 9 месяцев   |    .torrent скачан:  72 раза   |   
Раздают:  1  
   
загрузка...
 
Автор Сообщение

Polarnik

avatar Polarnik


Salmonella Dub - Freak Controller
Жанр:Electronic/Dub
Год издания диска: 2009
Страна: New Zealand
Аудио кодек: FLAC (*.flac)
Тип рипа: tracks
Битрейт аудио: lossless
Продолжительность: 01:10:30
Источник: локальная сеть

Треклист:
01. Restless Soul
02. Up & Running
03. Rhythm & Pattern
04. Dub Shakes
05. Wisdom by Default
06. Freak Local
07. Walk Into Your Mind
08. Bombastic
09. Untangling
10. Deep In Southland

Bonus Disk
01. Bungle Fun
02. Dope Funk Manoova (Wa O Mua)
03. Dub Tune Barry (Wasteful)
04. That''s What I Want
Exact Audio Copy V0.99 prebeta 5 from 4. May 2009

EAC extraction logfile from 2. December 2009, 17:20

Salmonella Dub / Freak Controller

Used drive : PIONEER DVD-RW DVR-216 Adapter: 1 ID: 0

Read mode : SecureUtilize accurate stream : YesDefeat audio cache : YesMake use of C2 pointers : No

Read offset correction : 96Overread into Lead-In and Lead-Out : NoFill up missing offset samples with silence : YesDelete leading and trailing silent blocks : NoNull samples used in CRC calculations : YesUsed interface : Native Win32 interface for Win NT & 2000Gap handling : Appended to previous track

Used output format : User Defined EncoderSelected bitrate : 128 kBit/sQuality : HighAdd ID3 tag : NoCommand line compressor : C:\Program Files\Exact Audio Copy\Flac\flac.exeAdditional command line options : -V -8 -T "artist=%a" -T "title=%t" -T "album=%g" -T "date=%y" -T "tracknumber=%n" -T "genre=%m" %s

TOC of the extracted CD

Track | Start | Length | Start sector | End sector --------------------------------------------------------- 1 | 0:00.00 | 5:34.10 | 0 | 25059 2 | 5:34.10 | 5:16.03 | 25060 | 48762 3 | 10:50.13 | 5:43.57 | 48763 | 74544 4 | 16:33.70 | 5:11.70 | 74545 | 97939 5 | 21:45.65 | 4:21.22 | 97940 | 117536 6 | 26:07.12 | 4:01.74 | 117537 | 135685 7 | 30:09.11 | 5:37.50 | 135686 | 161010 8 | 35:46.61 | 6:30.38 | 161011 | 190298 9 | 42:17.24 | 6:51.51 | 190299 | 221174 10 | 49:09.00 | 7:10.17 | 221175 | 253441

Track 1

Filename C:\EAC stuff\Salmonella Dub - - Freak Controller\01 - Restless Soul.wav

Pre-gap length 0:00:02.00

Peak level 98.8 % Track quality 100.0 % Test CRC 4C11A739 Copy CRC 4C11A739 Track not present in AccurateRip database Copy OK

Track 2

Filename C:\EAC stuff\Salmonella Dub - - Freak Controller\02 - Up&Running.wav

Peak level 98.8 % Track quality 100.0 % Test CRC 08DC2075 Copy CRC 08DC2075 Track not present in AccurateRip database Copy OK

Track 3

Filename C:\EAC stuff\Salmonella Dub - - Freak Controller\03 - Rhythm&Pattern.wav

Peak level 98.8 % Track quality 100.0 % Test CRC FE27457E Copy CRC FE27457E Track not present in AccurateRip database Copy OK

Track 4

Filename C:\EAC stuff\Salmonella Dub - - Freak Controller\04 - Dub Shakes.wav

Peak level 98.8 % Track quality 100.0 % Test CRC 6623C3AB Copy CRC 6623C3AB Track not present in AccurateRip database Copy OK

Track 5

Filename C:\EAC stuff\Salmonella Dub - - Freak Controller\05 - Wisdom by Default.wav

Peak level 98.8 % Track quality 100.0 % Test CRC E2617F5F Copy CRC E2617F5F Track not present in AccurateRip database Copy OK

Track 6

Filename C:\EAC stuff\Salmonella Dub - - Freak Controller\06 - Freak Local.wav

Peak level 98.8 % Track quality 100.0 % Test CRC 6EF8A676 Copy CRC 6EF8A676 Track not present in AccurateRip database Copy OK

Track 7

Filename C:\EAC stuff\Salmonella Dub - - Freak Controller\07 - Walk Into Your Mind.wav

Peak level 98.8 % Track quality 100.0 % Test CRC 7323CB4E Copy CRC 7323CB4E Track not present in AccurateRip database Copy OK

Track 8

Filename C:\EAC stuff\Salmonella Dub - - Freak Controller\08 - Bombastic.wav

Peak level 98.8 % Track quality 99.9 % Test CRC F1540CB4 Copy CRC F1540CB4 Track not present in AccurateRip database Copy OK

Track 9

Filename C:\EAC stuff\Salmonella Dub - - Freak Controller\09 - Untangling.wav

Peak level 98.8 % Track quality 100.0 % Test CRC C206A618 Copy CRC C206A618 Track not present in AccurateRip database Copy OK

Track 10

Filename C:\EAC stuff\Salmonella Dub - - Freak Controller\10 - Deep In Southland.wav

Peak level 98.8 % Track quality 100.0 % Test CRC 3D0C1C5C Copy CRC 3D0C1C5C Track not present in AccurateRip database Copy OK

None of the tracks are present in the AccurateRip database

No errors occurred

End of status report
Exact Audio Copy V0.99 prebeta 5 from 4. May 2009

EAC extraction logfile from 2. December 2009, 17:44

Salmonella Dub / Freak Controller Bonus Disc

Used drive : PIONEER DVD-RW DVR-216 Adapter: 1 ID: 0

Read mode : SecureUtilize accurate stream : YesDefeat audio cache : YesMake use of C2 pointers : No

Read offset correction : 96Overread into Lead-In and Lead-Out : NoFill up missing offset samples with silence : YesDelete leading and trailing silent blocks : NoNull samples used in CRC calculations : YesUsed interface : Native Win32 interface for Win NT & 2000Gap handling : Appended to previous track

Used output format : User Defined EncoderSelected bitrate : 128 kBit/sQuality : HighAdd ID3 tag : NoCommand line compressor : C:\Program Files\Exact Audio Copy\Flac\flac.exeAdditional command line options : -V -8 -T "artist=%a" -T "title=%t" -T "album=%g" -T "date=%y" -T "tracknumber=%n" -T "genre=%m" %s

TOC of the extracted CD

Track | Start | Length | Start sector | End sector --------------------------------------------------------- 1 | 0:00.00 | 3:07.60 | 0 | 14084 2 | 3:07.60 | 3:20.54 | 14085 | 29138 3 | 6:28.39 | 3:29.46 | 29139 | 44859 4 | 9:58.10 | 4:13.35 | 44860 | 63869

Track 1

Filename C:\EAC stuff\Salmonella Dub - - Freak Controller Bonus Disc\01 - Bungle Fun.wav

Pre-gap length 0:00:02.00

Peak level 98.8 % Track quality 100.0 % Test CRC 6E4851F1 Copy CRC 6E4851F1 Track not present in AccurateRip database Copy OK

Track 2

Filename C:\EAC stuff\Salmonella Dub - - Freak Controller Bonus Disc\02 - Dope Funk Manoova (Wa O Mua).wav

Peak level 99.0 % Track quality 100.0 % Test CRC FCF800B7 Copy CRC FCF800B7 Track not present in AccurateRip database Copy OK

Track 3

Filename C:\EAC stuff\Salmonella Dub - - Freak Controller Bonus Disc\03 - Dub Tune Barry (Wasteful).wav

Peak level 100.0 % Track quality 100.0 % Test CRC 85941066 Copy CRC 85941066 Track not present in AccurateRip database Copy OK

Track 4

Filename C:\EAC stuff\Salmonella Dub - - Freak Controller Bonus Disc\04 - That''s What I Want.wav

Peak level 98.8 % Track quality 100.0 % Test CRC 828D3B23 Copy CRC 828D3B23 Track not present in AccurateRip database Copy OK

None of the tracks are present in the AccurateRip database

No errors occurred

End of status report
REM DISCID 900D330AREM COMMENT "ExactAudioCopy v0.99pb5"PERFORMER "Salmonella Dub"TITLE "Freak Controller"FILE "01 - Restless Soul.flac" WAVE TRACK 01 AUDIO TITLE "Restless Soul" PERFORMER "Salmonella Dub" INDEX 01 00:00:00FILE "02 - Up&Running.flac" WAVE TRACK 02 AUDIO TITLE "Up&Running" PERFORMER "Salmonella Dub" INDEX 01 00:00:00FILE "03 - Rhythm&Pattern.flac" WAVE TRACK 03 AUDIO TITLE "Rhythm&Pattern" PERFORMER "Salmonella Dub" INDEX 01 00:00:00FILE "04 - Dub Shakes.flac" WAVE TRACK 04 AUDIO TITLE "Dub Shakes" PERFORMER "Salmonella Dub" INDEX 01 00:00:00FILE "05 - Wisdom by Default.flac" WAVE TRACK 05 AUDIO TITLE "Wisdom by Default" PERFORMER "Salmonella Dub" INDEX 01 00:00:00FILE "06 - Freak Local.flac" WAVE TRACK 06 AUDIO TITLE "Freak Local" PERFORMER "Salmonella Dub" INDEX 01 00:00:00FILE "07 - Walk Into Your Mind.flac" WAVE TRACK 07 AUDIO TITLE "Walk Into Your Mind" PERFORMER "Salmonella Dub" INDEX 01 00:00:00FILE "08 - Bombastic.flac" WAVE TRACK 08 AUDIO TITLE "Bombastic" PERFORMER "Salmonella Dub" INDEX 01 00:00:00FILE "09 - Untangling.flac" WAVE TRACK 09 AUDIO TITLE "Untangling" PERFORMER "Salmonella Dub" INDEX 01 00:00:00FILE "10 - Deep In Southland.flac" WAVE TRACK 10 AUDIO TITLE "Deep In Southland" PERFORMER "Salmonella Dub" INDEX 01 00:00:00
REM DISCID 26035304REM COMMENT "ExactAudioCopy v0.99pb5"PERFORMER "Salmonella Dub"TITLE "Freak Controller Bonus Disc"FILE "01 - Bungle Fun.wav" WAVE TRACK 01 AUDIO TITLE "Bungle Fun" PERFORMER "Salmonella Dub" INDEX 01 00:00:00FILE "02 - Dope Funk Manoova (Wa O Mua).wav" WAVE TRACK 02 AUDIO TITLE "Dope Funk Manoova (Wa O Mua)" PERFORMER "Salmonella Dub"FILE "03 - Dub Tune Barry (Wasteful).wav" WAVE TRACK 03 AUDIO TITLE "Dub Tune Barry (Wasteful)" PERFORMER "Salmonella Dub" INDEX 01 00:00:00FILE "04 - That''s What I Want.wav" WAVE TRACK 04 AUDIO TITLE "That''s What I Want" PERFORMER "Salmonella Dub" INDEX 01 00:00:00


Трекер:  [ 25-Сен-2013 08:11 ]

  

Скачать .torrent

Размер .torrent файла 19 KB


Размер: 447 MB
Хэш (hash) релиза: 4d73aa88b7036ba5ef6bb9e35571df039b0b2f27

Еще никто не оставлял запись к записи скачать торрент Salmonella Dub - Freak Controller - 2009, FLAC . Будь первым!

!Обратная связь