Full Anime | Les Misérables (Tome I, II, III, IV & V) | Household Affairs

Скачать через торрент музыку VA - Rolling Stone Rare Trax Vol. 26 - Jamaican Gold: 15 Original Reggae Rockers - 2003, APE бесплатно без регистрации torrent

Статистика раздачи
Размер:  299 MB   |    Зарегистрирован:  4 года 9 месяцев   |    .torrent скачан:  75 раз   |   
Раздают:  1  
   
загрузка...
 
Автор Сообщение

Polarnik

avatar Polarnik


Various Artists - Rolling Stone Rare Trax Vol. 26: Jamaican Gold

Жанр: Reggae
Страна-производитель диска: Germany
Год издания: 2003
Номер по каталогу: n/a
Аудиокодек: APE (*.ape)
Тип рипа: image+.cue
Битрейт аудио: lossless
Продолжительность: 01:00:09
Источник (релизер): avax
Наличие сканов в содержимом раздачи: да
Треклист:
01 Don Drummond – Man In The Street 3:22
02 Tommy McCook – Green Mango 3:40
03 Scotty – Draw Your Brakes 3:14
04 Toots & The Maytals – Funky Kingston 4:49
05 Mexicano, The – Move Up Starsky 4:02
06 Horace Andy – Lonely Woman 6:23
07 Ramon & Crystalites, The – Golden Chickens 2:47
08 Junior Delahaye – Love 5:34
09 Dennis Brown – Emanuel 3:52
10 Peter Tosh – Brand New Second-Hand 3:08
11 Big Youth – Screaming Target 3:36
12 Bunny Lion – Rat Trap 3:48
13 Prince Far I – Coming In From The Rock 3:36
14 Abyssinians – Mandela 3:42
15 Gregory Isaacs – Night Nurse 3:59
Exact Audio Copy V1.0 beta 3 from 29. August 2011

EAC extraction logfile from 28. May 2013, 9:10

RSRT Various / Vol. 26: Jamaican Gold

Used drive : PIONEER BD-RW BDR-206 Adapter: 0 ID: 2

Read mode : SecureUtilize accurate stream : YesDefeat audio cache : YesMake use of C2 pointers : No

Read offset correction : 667Overread into Lead-In and Lead-Out : NoFill up missing offset samples with silence : YesDelete leading and trailing silent blocks : NoNull samples used in CRC calculations : YesUsed interface : Native Win32 interface for Win NT & 2000

Used output format : User Defined EncoderSelected bitrate : 1024 kBit/sQuality : HighAdd ID3 tag : YesCommand line compressor : C:\Program Files\FLAC\flac.exeAdditional command line options : -5 -T "Artist=%artist%" -T "Title=%title%" -T "Album=%albumtitle%" -T "Date=%year%" -T "Tracknumber=%tracknr%" -T "Genre=%genre%" %source% -o %dest%

TOC of the extracted CD

Track | Start | Length | Start sector | End sector --------------------------------------------------------- 1 | 0:00.00 | 3:24.11 | 0 | 15310 2 | 3:24.11 | 3:42.13 | 15311 | 31973 3 | 7:06.24 | 3:16.38 | 31974 | 46711 4 | 10:22.62 | 4:51.67 | 46712 | 68603 5 | 15:14.54 | 4:04.65 | 68604 | 86968 6 | 19:19.44 | 6:25.17 | 86969 | 115860 7 | 25:44.61 | 2:50.10 | 115861 | 128620 8 | 28:34.71 | 5:36.14 | 128621 | 153834 9 | 34:11.10 | 3:54.73 | 153835 | 171457 10 | 38:06.08 | 3:10.38 | 171458 | 185745 11 | 41:16.46 | 3:38.33 | 185746 | 202128 12 | 44:55.04 | 3:50.45 | 202129 | 219423 13 | 48:45.49 | 3:38.33 | 219424 | 235806 14 | 52:24.07 | 3:44.27 | 235807 | 252633 15 | 56:08.34 | 3:59.73 | 252634 | 270631

Range status and errors

Selected range

Filename F:\=== VINYL RIPS ===\=== EAC===\X FRESH RIP\Rare Trax - Vol. 26 - Jamaican Gold.wav

Peak level 100.0 % Extraction speed 7.2 X Range quality 100.0 % Copy CRC B855D7D2 Copy OK

No errors occurred

AccurateRip summary

Track 1 accurately ripped (confidence 5) [1A66ECEF] (AR v2)Track 2 accurately ripped (confidence 5) [1222EE5E] (AR v2)Track 3 accurately ripped (confidence 5) [545EE1A7] (AR v2)Track 4 accurately ripped (confidence 5) [5F6EF1BC] (AR v2)Track 5 accurately ripped (confidence 5) [482B064E] (AR v2)Track 6 accurately ripped (confidence 5) [05774A09] (AR v2)Track 7 accurately ripped (confidence 5) [46E32773] (AR v2)Track 8 accurately ripped (confidence 5) [EF79A002] (AR v2)Track 9 accurately ripped (confidence 5) [8D426B0B] (AR v2)Track 10 accurately ripped (confidence 5) [0DD69A00] (AR v2)Track 11 accurately ripped (confidence 5) [6533063A] (AR v2)Track 12 accurately ripped (confidence 5) [33679308] (AR v2)Track 13 accurately ripped (confidence 5) [401A516E] (AR v2)Track 14 accurately ripped (confidence 5) [93A7545B] (AR v2)Track 15 accurately ripped (confidence 5) [006E18C5] (AR v2)

All tracks accurately ripped

End of status report

---- CUETools DB Plugin V2.1.3

[CTDB TOCID: uHqSm0cfqUxnl4FJkce2vDo9h0s-] found, Submit result: uHqSm0cfqUxnl4FJkce2vDo9h0s- has been confirmed[4f3c2a98] (4/5) Accurately ripped[598f8871] (1/5) No match

==== Log checksum 5B27EC290B7B027F35BD13280BD4826EEA75B41D17907E53423F23877286625F ====
AUDIOCHECKER v2.0 beta (build 457) - by Dester - [email protected]~~~~~~~~~~~~~~~~~~~~~~~~~~~~~~~~~~-=== DO NOT EDIT THIS FILE! ===-

Path: ...\Vol. 26 - Jamaican Gold (2003)

1 -=- Rare Trax - Vol. 26 - Jamaican Gold.wav -=- CDDA (100%)

57595604
CD-приложение к германскому изданию Rolling Stone Magazine


Трекер:  [ 25-Сен-2013 08:12 ]

  

Скачать .torrent

Размер .torrent файла 12 KB


Размер: 299 MB
Хэш (hash) релиза: 749bb01255fb6aea749c27050061891dd39e5640

Еще никто не оставлял запись к записи скачать торрент VA - Rolling Stone Rare Trax Vol. 26 - Jamaican Gold: 15 Original Reggae Rockers - 2003, APE . Будь первым!

!Обратная связь