1ª Temporada | Animes Boku no hero academia 3x11 | DOWNLOAD

Скачать через торрент музыку Zenzile - Modus Vivendi - 2005, FLAC бесплатно без регистрации torrent

Статистика раздачи
Размер:  286 MB   |    Зарегистрирован:  4 года 9 месяцев   |    .torrent скачан:  58 раз   |   
Раздают:  1  
   
загрузка...
 
Автор Сообщение

Polarnik

avatar Polarnik


Zenzile / Modus Vivendi

Жанр: Dub, Electronic
Страна-производитель диска: France
Год издания: 2005
Издатель (лейбл): Supersonic
Номер по каталогу: SP 002
Страна: France
Аудиокодек: FLAC (*.flac)
Тип рипа: tracks+.cue
Битрейт аудио: lossless
Продолжительность: 00:45:05
Источник (релизер): what.cd
Наличие сканов в содержимом раздачи: нет
Треклист:
01. Wow
02. War Still A Run
03. Pirates
04. Dawn
05. Mafate
06. Up Is A Long Way To Go
07. Eolian Blues
08. Twilight
09. Hippo
10. Simple Lesson
11. Basic
12. Le Rayon Vert
Exact Audio Copy V1.0 beta 3 from 29. August 2011

EAC extraction logfile from 24. January 2013, 19:17

Zenzile / Modus Vivendi

Used drive : ASUS DRW-24B5ST Adapter: 3 ID: 0

Read mode : SecureUtilize accurate stream : YesDefeat audio cache : YesMake use of C2 pointers : No

Read offset correction : 6Overread into Lead-In and Lead-Out : NoFill up missing offset samples with silence : YesDelete leading and trailing silent blocks : NoNull samples used in CRC calculations : YesUsed interface : Native Win32 interface for Win NT & 2000Gap handling : Appended to previous track

Used output format : User Defined EncoderSelected bitrate : 1024 kBit/sQuality : HighAdd ID3 tag : NoCommand line compressor : C:\Program Files\Exact Audio Copy\Flac\flac.exeAdditional command line options : -8 -V -T "ARTIST=%artist%" -T "TITLE=%title%" -T "ALBUM=%albumtitle%" -T "DATE=%year%" -T "TRACKNUMBER=%tracknr%" -T "GENRE=%genre%" -T "PERFORMER=%albuminterpret%" -T "COMPOSER=%composer%" %haslyrics%--tag-from-file=LYRICS="%lyricsfile%"%haslyrics% -T "ALBUMARTIST=%albumartist%" -T "DISCNUMBER=%cdnumber%" -T "TOTALDISCS=%totalcds%" -T "TOTALTRACKS=%numtracks%" -T "COMMENT=%comment%" %source% -o %dest%

TOC of the extracted CD

Track | Start | Length | Start sector | End sector --------------------------------------------------------- 1 | 0:00.00 | 5:08.07 | 0 | 23106 2 | 5:08.07 | 4:20.29 | 23107 | 42635 3 | 9:28.36 | 3:09.64 | 42636 | 56874 4 | 12:38.25 | 1:00.37 | 56875 | 61411 5 | 13:38.62 | 3:41.28 | 61412 | 78014 6 | 17:20.15 | 3:51.72 | 78015 | 95411 7 | 21:12.12 | 4:52.68 | 95412 | 117379 8 | 26:05.05 | 0:46.07 | 117380 | 120836 9 | 26:51.12 | 5:02.24 | 120837 | 143510 10 | 31:53.36 | 6:08.43 | 143511 | 171153 11 | 38:02.04 | 4:35.23 | 171154 | 191801 12 | 42:37.27 | 2:28.06 | 191802 | 202907 13 | 47:37.33 | 14:00.35 | 214308 | 277342

Track 1

Filename I:\EAC\Zenzile\(2005) Modus Vivendi\01 - Wow.wav

Pre-gap length 0:00:02.00

Peak level 98.8 % Extraction speed 3.0 X Track quality 99.9 % Test CRC 5FD07FD4 Copy CRC 5FD07FD4 Accurately ripped (confidence 2) [409781B0] (AR v1) Copy OK

Track 2

Filename I:\EAC\Zenzile\(2005) Modus Vivendi\02 - War still a run.wav

Peak level 98.8 % Extraction speed 3.9 X Track quality 100.0 % Test CRC 461B670B Copy CRC 461B670B Accurately ripped (confidence 2) [9980ABCA] (AR v1) Copy OK

Track 3

Filename I:\EAC\Zenzile\(2005) Modus Vivendi\03 - Pirates.wav

Peak level 98.8 % Extraction speed 4.0 X Track quality 100.0 % Test CRC 268D8BCD Copy CRC 268D8BCD Accurately ripped (confidence 2) [2515980B] (AR v1) Copy OK

Track 4

Filename I:\EAC\Zenzile\(2005) Modus Vivendi\04 - Dawn.wav

Peak level 88.1 % Extraction speed 3.0 X Track quality 100.0 % Test CRC 9B77E6F8 Copy CRC 9B77E6F8 Accurately ripped (confidence 2) [518B3AE5] (AR v1) Copy OK

Track 5

Filename I:\EAC\Zenzile\(2005) Modus Vivendi\05 - Mafate.wav

Peak level 98.8 % Extraction speed 4.3 X Track quality 100.0 % Test CRC 65C53564 Copy CRC 65C53564 Accurately ripped (confidence 2) [7ED07EF4] (AR v1) Copy OK

Track 6

Filename I:\EAC\Zenzile\(2005) Modus Vivendi\06 - Up is a long way to go.wav

Pre-gap length 0:00:01.66

Peak level 98.8 % Extraction speed 4.7 X Track quality 100.0 % Test CRC 7CFA06A1 Copy CRC 7CFA06A1 Accurately ripped (confidence 2) [33381533] (AR v1) Copy OK

Track 7

Filename I:\EAC\Zenzile\(2005) Modus Vivendi\07 - Eolian blues.wav

Pre-gap length 0:00:02.38

Peak level 98.8 % Extraction speed 5.1 X Track quality 100.0 % Test CRC 4CA36455 Copy CRC 4CA36455 Accurately ripped (confidence 2) [D342681B] (AR v1) Copy OK

Track 8

Filename I:\EAC\Zenzile\(2005) Modus Vivendi\08 - Twilight.wav

Pre-gap length 0:00:02.10

Peak level 98.6 % Extraction speed 3.3 X Track quality 100.0 % Test CRC 4662A46D Copy CRC 4662A46D Accurately ripped (confidence 2) [564B7D74] (AR v1) Copy OK

Track 9

Filename I:\EAC\Zenzile\(2005) Modus Vivendi\09 - Hippo.wav

Peak level 98.8 % Extraction speed 5.5 X Track quality 100.0 % Test CRC AC7A5732 Copy CRC AC7A5732 Accurately ripped (confidence 2) [E7F2D2FC] (AR v1) Copy OK

Track 10

Filename I:\EAC\Zenzile\(2005) Modus Vivendi\10 - Simple lesson.wav

Pre-gap length 0:00:03.89

Peak level 100.0 % Extraction speed 5.9 X Track quality 100.0 % Test CRC 284394CD Copy CRC 284394CD Accurately ripped (confidence 2) [AB922CB2] (AR v1) Copy OK

Track 11

Filename I:\EAC\Zenzile\(2005) Modus Vivendi\11 - Basic.wav

Pre-gap length 0:00:02.33

Peak level 98.8 % Extraction speed 6.0 X Track quality 100.0 % Test CRC D4265D09 Copy CRC D4265D09 Accurately ripped (confidence 2) [D4066887] (AR v1) Copy OK

Track 12

Filename I:\EAC\Zenzile\(2005) Modus Vivendi\12 - Le rayon vert.wav

Pre-gap length 0:00:02.02

Peak level 98.8 % Extraction speed 4.1 X Track quality 99.9 % Test CRC 45E586A9 Copy CRC 45E586A9 Accurately ripped (confidence 2) [E775265D] (AR v1) Copy OK

All tracks accurately ripped

No errors occurred

End of status report

---- CUETools DB Plugin V2.1.3

[CTDB TOCID: V2ZERkOV.EVxc6ALZvdDUnJw_cE-] disk not present in database, Submit result: V2ZERkOV.EVxc6ALZvdDUnJw_cE- has been uploaded

==== Log checksum 62E35D71481F46A9DC14DEA0F030BF67E2256B1D262D01696B6C7BFB8F465CF4 ====
REM GENRE "Dub electro"REM DATE 2004REM DISCID A90E710DREM COMMENT "ExactAudioCopy v1.0b3"PERFORMER "Zenzile"TITLE "Modus Vivendi"FILE "01 - Wow.wav" WAVE TRACK 01 AUDIO TITLE "Wow" PERFORMER "Zenzile" ISRC FRP620400010 FLAGS DCP INDEX 01 00:00:00FILE "02 - War still a run.wav" WAVE TRACK 02 AUDIO TITLE "War still a run" PERFORMER "Zenzile" ISRC FRP620400020 FLAGS DCP INDEX 01 00:00:00FILE "03 - Pirates.wav" WAVE TRACK 03 AUDIO TITLE "Pirates" PERFORMER "Zenzile" ISRC FRP620400030 FLAGS DCP INDEX 01 00:00:00FILE "04 - Dawn.wav" WAVE TRACK 04 AUDIO TITLE "Dawn" PERFORMER "Zenzile" ISRC FRP620400040 FLAGS DCP INDEX 01 00:00:00FILE "05 - Mafate.wav" WAVE TRACK 05 AUDIO TITLE "Mafate" PERFORMER "Zenzile" ISRC FRP620400050 FLAGS DCP INDEX 01 00:00:00 TRACK 06 AUDIO TITLE "Up is a long way to go" PERFORMER "Zenzile" ISRC FRP620400060 FLAGS DCP INDEX 00 03:39:53FILE "06 - Up is a long way to go.wav" WAVE INDEX 01 00:00:00 TRACK 07 AUDIO TITLE "Eolian blues" PERFORMER "Zenzile" ISRC FRP620400070 FLAGS DCP INDEX 00 03:49:43FILE "07 - Eolian blues.wav" WAVE INDEX 01 00:00:00 TRACK 08 AUDIO TITLE "Twilight" PERFORMER "Zenzile" ISRC FRP620400080 FLAGS DCP INDEX 00 04:50:60FILE "08 - Twilight.wav" WAVE INDEX 01 00:00:00FILE "09 - Hippo.wav" WAVE TRACK 09 AUDIO TITLE "Hippo" PERFORMER "Zenzile" ISRC FRP620400090 FLAGS DCP INDEX 01 00:00:00 TRACK 10 AUDIO TITLE "Simple lesson" PERFORMER "Zenzile" ISRC FRP620400100 FLAGS DCP INDEX 00 04:58:32FILE "10 - Simple lesson.wav" WAVE INDEX 01 00:00:00 TRACK 11 AUDIO TITLE "Basic" PERFORMER "Zenzile" ISRC FRP620400110 FLAGS DCP INDEX 00 06:06:18FILE "11 - Basic.wav" WAVE INDEX 01 00:00:00 TRACK 12 AUDIO TITLE "Le rayon vert" PERFORMER "Zenzile" ISRC FRP620400120 FLAGS DCP INDEX 00 04:33:21FILE "12 - Le rayon vert.wav" WAVE INDEX 01 00:00:00 TRACK 13 MODEx/2xxx TITLE "Simple Lesson (edit) (clip rйalisй par Olivier Dahan)" PERFORMER "Zenzile" INDEX 00 02:28:06


Трекер:  [ 25-Сен-2013 08:17 ]

  

Скачать .torrent

Размер .torrent файла 12 KB


Размер: 286 MB
Хэш (hash) релиза: fb754cd6855bd16cccbd5ef3f3ec5368401930e3

Еще никто не оставлял запись к записи скачать торрент Zenzile - Modus Vivendi - 2005, FLAC . Будь первым!

!Обратная связь