Short Stories | La nuit des rois | KanColle: Fleet Girls Collection

Скачать через торрент музыку Kaly Live Dub - Lightin The Shadows - 2010, FLAC бесплатно без регистрации torrent

Статистика раздачи
Размер:  387 MB   |    Зарегистрирован:  4 года 9 месяцев   |    .torrent скачан:  72 раза   |   
Раздают:  1  
   
загрузка...
 
Автор Сообщение

Polarnik

avatar Polarnik


Kaly Live Dub / Lightin'' The Shadows

Жанр: Dub, Electronic, Reggae
Страна-производитель диска: France
Год издания: 2010
Издатель (лейбл): Jarring Effects
Номер по каталогу: FX099
Страна: France
Аудиокодек: FLAC (*.flac)
Тип рипа: tracks+.cue
Битрейт аудио: lossless
Продолжительность: 1:04:42
Источник (релизер): what.cd
Наличие сканов в содержимом раздачи: нет
Треклист:
1 - Zoll
2 - Conflicts (feat. K-the-I???)
3 - Lightin'' the Shadows
4 - In Case
5 - Wu
6 - Light''s Thief
7 - The Brown Noise
8 - Moog-Lee
9 - Peaceful Warrior (feat. Joe Pilgrim)
10 - Wackies
11 - What a Life (feat. Biga Ranx)
12 - Radical in the Vatical (feat. Joe Pilgrim)
13 - What a Dub
14 - Tension Spirit
15 - Sanmidor
Exact Audio Copy V0.99 prebeta 5 from 4. May 2009

EAC extraction logfile from 26. August 2009, 21:53

Kaly Live Dub / Lightin'' The Shadows

Used drive : HL-DT-STDVD-RAM GSA-H55N Adapter: 0 ID: 0

Read mode : SecureUtilize accurate stream : YesDefeat audio cache : YesMake use of C2 pointers : No

Read offset correction : 102Overread into Lead-In and Lead-Out : NoFill up missing offset samples with silence : YesDelete leading and trailing silent blocks : NoNull samples used in CRC calculations : YesUsed interface : Native Win32 interface for Win NT & 2000Gap handling : Appended to previous track

Used output format : User Defined EncoderSelected bitrate : 128 kBit/sQuality : HighAdd ID3 tag : NoCommand line compressor : C:\Program Files\Exact Audio Copy\Flac\flac.exeAdditional command line options : -V -8 -T "artist=%a" -T "title=%t" -T "album=%g" -T "date=%y" -T "tracknumber=%n" -T "genre=%m" %s

TOC of the extracted CD

Track | Start | Length | Start sector | End sector --------------------------------------------------------- 1 | 0:00.00 | 4:31.24 | 0 | 20348 2 | 4:31.24 | 3:29.31 | 20349 | 36054 3 | 8:00.55 | 5:03.22 | 36055 | 58801 4 | 13:04.02 | 4:36.13 | 58802 | 79514 5 | 17:40.15 | 3:38.22 | 79515 | 95886 6 | 21:18.37 | 4:54.00 | 95887 | 117936 7 | 26:12.37 | 4:47.22 | 117937 | 139483 8 | 30:59.59 | 4:51.07 | 139484 | 161315 9 | 35:50.66 | 3:46.58 | 161316 | 178323 10 | 39:37.49 | 3:15.16 | 178324 | 192964 11 | 42:52.65 | 3:33.31 | 192965 | 208970 12 | 46:26.21 | 3:33.36 | 208971 | 224981 13 | 49:59.57 | 4:47.64 | 224982 | 246570 14 | 54:47.46 | 4:11.21 | 246571 | 265416 15 | 58:58.67 | 5:44.07 | 265417 | 291223

Track 1

Filename C:\Users\Master\Desktop\Rips\Kaly Live Dub - Lightin'' The Shadows\01 - Zoll.wav

Pre-gap length 0:00:02.00

Peak level 100.0 % Track quality 99.9 % Test CRC FC16E57A Copy CRC FC16E57A Track not present in AccurateRip database Copy OK

Track 2

Filename C:\Users\Master\Desktop\Rips\Kaly Live Dub - Lightin'' The Shadows\02 - Conflicts (feat. K-The-I ).wav

Peak level 97.7 % Track quality 100.0 % Test CRC 32DAE9F7 Copy CRC 32DAE9F7 Track not present in AccurateRip database Copy OK

Track 3

Filename C:\Users\Master\Desktop\Rips\Kaly Live Dub - Lightin'' The Shadows\03 - Lightin'' The Shadows.wav

Peak level 97.7 % Track quality 100.0 % Test CRC B00C0497 Copy CRC B00C0497 Track not present in AccurateRip database Copy OK

Track 4

Filename C:\Users\Master\Desktop\Rips\Kaly Live Dub - Lightin'' The Shadows\04 - In Case.wav

Peak level 97.7 % Track quality 100.0 % Test CRC 0CF61192 Copy CRC 0CF61192 Track not present in AccurateRip database Copy OK

Track 5

Filename C:\Users\Master\Desktop\Rips\Kaly Live Dub - Lightin'' The Shadows\05 - Wu.wav

Peak level 97.7 % Track quality 100.0 % Test CRC F78EC173 Copy CRC F78EC173 Track not present in AccurateRip database Copy OK

Track 6

Filename C:\Users\Master\Desktop\Rips\Kaly Live Dub - Lightin'' The Shadows\06 - Light''s Thief.wav

Peak level 97.7 % Track quality 100.0 % Test CRC CC443687 Copy CRC CC443687 Track not present in AccurateRip database Copy OK

Track 7

Filename C:\Users\Master\Desktop\Rips\Kaly Live Dub - Lightin'' The Shadows\07 - The Brown Noise.wav

Peak level 97.7 % Track quality 100.0 % Test CRC 485EDD77 Copy CRC 485EDD77 Track not present in AccurateRip database Copy OK

Track 8

Filename C:\Users\Master\Desktop\Rips\Kaly Live Dub - Lightin'' The Shadows\08 - Moog-Lee.wav

Peak level 97.7 % Track quality 100.0 % Test CRC B6C3F007 Copy CRC B6C3F007 Track not present in AccurateRip database Copy OK

Track 9

Filename C:\Users\Master\Desktop\Rips\Kaly Live Dub - Lightin'' The Shadows\09 - Peacefull Warrior (feat. Joe Pilgrim).wav

Peak level 97.3 % Track quality 99.9 % Test CRC D7A78104 Copy CRC D7A78104 Track not present in AccurateRip database Copy OK

Track 10

Filename C:\Users\Master\Desktop\Rips\Kaly Live Dub - Lightin'' The Shadows\10 - Wackies.wav

Peak level 97.3 % Track quality 100.0 % Test CRC 241979FA Copy CRC 241979FA Track not present in AccurateRip database Copy OK

Track 11

Filename C:\Users\Master\Desktop\Rips\Kaly Live Dub - Lightin'' The Shadows\11 - What A Life (feat. Biga Ranx).wav

Peak level 97.4 % Track quality 100.0 % Test CRC 1A04CDEC Copy CRC 1A04CDEC Track not present in AccurateRip database Copy OK

Track 12

Filename C:\Users\Master\Desktop\Rips\Kaly Live Dub - Lightin'' The Shadows\12 - Radical In The Vatican (feat. Joe Pilgrim).wav

Peak level 97.4 % Track quality 100.0 % Test CRC D7225B4F Copy CRC D7225B4F Track not present in AccurateRip database Copy OK

Track 13

Filename C:\Users\Master\Desktop\Rips\Kaly Live Dub - Lightin'' The Shadows\13 - What A Dub.wav

Peak level 97.2 % Track quality 100.0 % Test CRC 7AFE537F Copy CRC 7AFE537F Track not present in AccurateRip database Copy OK

Track 14

Filename C:\Users\Master\Desktop\Rips\Kaly Live Dub - Lightin'' The Shadows\14 - Tension Spirit.wav

Peak level 97.3 % Track quality 100.0 % Test CRC EF618734 Copy CRC EF618734 Track not present in AccurateRip database Copy OK

Track 15

Filename C:\Users\Master\Desktop\Rips\Kaly Live Dub - Lightin'' The Shadows\15 - Sanmidor.wav

Peak level 97.4 % Track quality 100.0 % Test CRC 66BF456B Copy CRC 66BF456B Track not present in AccurateRip database Copy OK

None of the tracks are present in the AccurateRip database

No errors occurred

End of status report

------------------------------------------------------------

Exact Audio Copy V0.99 prebeta 5 from 4. May 2009

EAC extraction logfile from 26. August 2009, 22:54

Kaly Live Dub / Lightin'' The Shadows

Used drive : HL-DT-STDVD-RAM GSA-H55N Adapter: 0 ID: 0

Read mode : SecureUtilize accurate stream : YesDefeat audio cache : YesMake use of C2 pointers : No

Read offset correction : 102Overread into Lead-In and Lead-Out : NoFill up missing offset samples with silence : YesDelete leading and trailing silent blocks : NoNull samples used in CRC calculations : YesUsed interface : Native Win32 interface for Win NT & 2000Gap handling : Appended to previous track

Used output format : User Defined EncoderSelected bitrate : 128 kBit/sQuality : HighAdd ID3 tag : NoCommand line compressor : C:\Users\Master\Documents\Downloads\lame.exeAdditional command line options : -V 0 --vbr-new --add-id3v2 --ignore-tag-errors --ta "%a" --tt "%t" --tg "%m" --tl "%g" --ty "%y" --tn "%n" %s %d

TOC of the extracted CD

Track | Start | Length | Start sector | End sector --------------------------------------------------------- 1 | 0:00.00 | 4:31.24 | 0 | 20348 2 | 4:31.24 | 3:29.31 | 20349 | 36054 3 | 8:00.55 | 5:03.22 | 36055 | 58801 4 | 13:04.02 | 4:36.13 | 58802 | 79514 5 | 17:40.15 | 3:38.22 | 79515 | 95886 6 | 21:18.37 | 4:54.00 | 95887 | 117936 7 | 26:12.37 | 4:47.22 | 117937 | 139483 8 | 30:59.59 | 4:51.07 | 139484 | 161315 9 | 35:50.66 | 3:46.58 | 161316 | 178323 10 | 39:37.49 | 3:15.16 | 178324 | 192964 11 | 42:52.65 | 3:33.31 | 192965 | 208970 12 | 46:26.21 | 3:33.36 | 208971 | 224981 13 | 49:59.57 | 4:47.64 | 224982 | 246570 14 | 54:47.46 | 4:11.21 | 246571 | 265416 15 | 58:58.67 | 5:44.07 | 265417 | 291223

Track 1

Filename C:\Users\Master\Desktop\Rips\Kaly Live Dub - Lightin'' The Shadows\01 - Zoll.wav

Pre-gap length 0:00:02.00

Peak level 100.0 % Track quality 99.9 % Test CRC FC16E57A Copy CRC FC16E57A Track not present in AccurateRip database Copy OK

Track 2

Filename C:\Users\Master\Desktop\Rips\Kaly Live Dub - Lightin'' The Shadows\02 - Conflicts (feat. K-The-I ).wav

Peak level 97.7 % Track quality 100.0 % Test CRC 32DAE9F7 Copy CRC 32DAE9F7 Track not present in AccurateRip database Copy OK

Track 3

Filename C:\Users\Master\Desktop\Rips\Kaly Live Dub - Lightin'' The Shadows\03 - Lightin'' The Shadows.wav

Peak level 97.7 % Track quality 100.0 % Test CRC B00C0497 Copy CRC B00C0497 Track not present in AccurateRip database Copy OK

Track 4

Filename C:\Users\Master\Desktop\Rips\Kaly Live Dub - Lightin'' The Shadows\04 - In Case.wav

Peak level 97.7 % Track quality 100.0 % Test CRC 0CF61192 Copy CRC 0CF61192 Track not present in AccurateRip database Copy OK

Track 5

Filename C:\Users\Master\Desktop\Rips\Kaly Live Dub - Lightin'' The Shadows\05 - Wu.wav

Peak level 97.7 % Track quality 100.0 % Test CRC F78EC173 Copy CRC F78EC173 Track not present in AccurateRip database Copy OK

Track 6

Filename C:\Users\Master\Desktop\Rips\Kaly Live Dub - Lightin'' The Shadows\06 - Light''s Thief.wav

Peak level 97.7 % Track quality 100.0 % Test CRC CC443687 Copy CRC CC443687 Track not present in AccurateRip database Copy OK

Track 7

Filename C:\Users\Master\Desktop\Rips\Kaly Live Dub - Lightin'' The Shadows\07 - The Brown Noise.wav

Peak level 97.7 % Track quality 100.0 % Test CRC 485EDD77 Copy CRC 485EDD77 Track not present in AccurateRip database Copy OK

Track 8

Filename C:\Users\Master\Desktop\Rips\Kaly Live Dub - Lightin'' The Shadows\08 - Moog-Lee.wav

Peak level 97.7 % Track quality 100.0 % Test CRC B6C3F007 Copy CRC B6C3F007 Track not present in AccurateRip database Copy OK

Track 9

Filename C:\Users\Master\Desktop\Rips\Kaly Live Dub - Lightin'' The Shadows\09 - Peacefull Warrior (feat. Joe Pilgrim).wav

Peak level 97.3 % Track quality 99.9 % Test CRC D7A78104 Copy CRC D7A78104 Track not present in AccurateRip database Copy OK

Track 10

Filename C:\Users\Master\Desktop\Rips\Kaly Live Dub - Lightin'' The Shadows\10 - Wackies.wav

Peak level 97.3 % Track quality 100.0 % Test CRC 241979FA Copy CRC 241979FA Track not present in AccurateRip database Copy OK

Track 11

Filename C:\Users\Master\Desktop\Rips\Kaly Live Dub - Lightin'' The Shadows\11 - What A Life (feat. Biga Ranx).wav

Peak level 97.4 % Track quality 100.0 % Test CRC 1A04CDEC Copy CRC 1A04CDEC Track not present in AccurateRip database Copy OK

Track 12

Filename C:\Users\Master\Desktop\Rips\Kaly Live Dub - Lightin'' The Shadows\12 - Radical In The Vatican (feat. Joe Pilgrim).wav

Peak level 97.4 % Track quality 100.0 % Test CRC D7225B4F Copy CRC D7225B4F Track not present in AccurateRip database Copy OK

Track 13

Filename C:\Users\Master\Desktop\Rips\Kaly Live Dub - Lightin'' The Shadows\13 - What A Dub.wav

Peak level 97.2 % Track quality 100.0 % Test CRC 7AFE537F Copy CRC 7AFE537F Track not present in AccurateRip database Copy OK

Track 14

Filename C:\Users\Master\Desktop\Rips\Kaly Live Dub - Lightin'' The Shadows\14 - Tension Spirit.wav

Peak level 97.3 % Track quality 100.0 % Test CRC EF618734 Copy CRC EF618734 Track not present in AccurateRip database Copy OK

Track 15

Filename C:\Users\Master\Desktop\Rips\Kaly Live Dub - Lightin'' The Shadows\15 - Sanmidor.wav

Peak level 97.4 % Track quality 100.0 % Test CRC 66BF456B Copy CRC 66BF456B Track not present in AccurateRip database Copy OK

None of the tracks are present in the AccurateRip database

No errors occurred

End of status report
REM DATE 2010REM DISCID D60F2A0FREM COMMENT "ExactAudioCopy v0.99pb5"PERFORMER "Kaly Live Dub"TITLE "Lightin'' The Shadows "FILE "Kaly Live Dub - Lightin'' The Shadows\01 - Zoll.wav" WAVE TRACK 01 AUDIO TITLE "Zoll" PERFORMER "Kaly Live Dub" FLAGS DCP INDEX 01 00:00:00FILE "Kaly Live Dub - Lightin'' The Shadows\02 - Conflicts (feat. K-The-I ).wav" WAVE TRACK 02 AUDIO TITLE "Conflicts (feat. K-The-I???)" PERFORMER "Kaly Live Dub" FLAGS DCP INDEX 01 00:00:00FILE "Kaly Live Dub - Lightin'' The Shadows\03 - Lightin'' The Shadows.wav" WAVE TRACK 03 AUDIO TITLE "Lightin'' The Shadows" PERFORMER "Kaly Live Dub" FLAGS DCP INDEX 01 00:00:00FILE "Kaly Live Dub - Lightin'' The Shadows\04 - In Case.wav" WAVE TRACK 04 AUDIO TITLE "In Case" PERFORMER "Kaly Live Dub" FLAGS DCP INDEX 01 00:00:00FILE "Kaly Live Dub - Lightin'' The Shadows\05 - Wu.wav" WAVE TRACK 05 AUDIO TITLE "Wu" PERFORMER "Kaly Live Dub" FLAGS DCP INDEX 01 00:00:00FILE "Kaly Live Dub - Lightin'' The Shadows\06 - Light''s Thief.wav" WAVE TRACK 06 AUDIO TITLE "Light''s Thief" PERFORMER "Kaly Live Dub" FLAGS DCP INDEX 01 00:00:00FILE "Kaly Live Dub - Lightin'' The Shadows\07 - The Brown Noise.wav" WAVE TRACK 07 AUDIO TITLE "The Brown Noise" PERFORMER "Kaly Live Dub" FLAGS DCP INDEX 01 00:00:00FILE "Kaly Live Dub - Lightin'' The Shadows\08 - Moog-Lee.wav" WAVE TRACK 08 AUDIO TITLE "Moog-Lee" PERFORMER "Kaly Live Dub" FLAGS DCP INDEX 01 00:00:00FILE "Kaly Live Dub - Lightin'' The Shadows\09 - Peacefull Warrior (feat. Joe Pilgrim).wav" WAVE TRACK 09 AUDIO TITLE "Peacefull Warrior (feat. Joe Pilgrim)" PERFORMER "Kaly Live Dub" FLAGS DCP INDEX 01 00:00:00FILE "Kaly Live Dub - Lightin'' The Shadows\10 - Wackies.wav" WAVE TRACK 10 AUDIO TITLE "Wackies" PERFORMER "Kaly Live Dub" FLAGS DCP INDEX 01 00:00:00FILE "Kaly Live Dub - Lightin'' The Shadows\11 - What A Life (feat. Biga Ranx).wav" WAVE TRACK 11 AUDIO TITLE "What A Life (feat. Biga Ranx)" PERFORMER "Kaly Live Dub" FLAGS DCP INDEX 01 00:00:00FILE "Kaly Live Dub - Lightin'' The Shadows\12 - Radical In The Vatican (feat. Joe Pilgrim).wav" WAVE TRACK 12 AUDIO TITLE "Radical In The Vatican (feat. Joe Pilgrim)" PERFORMER "Kaly Live Dub" FLAGS DCP INDEX 01 00:00:00FILE "Kaly Live Dub - Lightin'' The Shadows\13 - What A Dub.wav" WAVE TRACK 13 AUDIO TITLE "What A Dub" PERFORMER "Kaly Live Dub" FLAGS DCP INDEX 01 00:00:00FILE "Kaly Live Dub - Lightin'' The Shadows\14 - Tension Spirit.wav" WAVE TRACK 14 AUDIO TITLE "Tension Spirit" PERFORMER "Kaly Live Dub" FLAGS DCP INDEX 01 00:00:00FILE "Kaly Live Dub - Lightin'' The Shadows\15 - Sanmidor.wav" WAVE TRACK 15 AUDIO TITLE "Sanmidor" PERFORMER "Kaly Live Dub" FLAGS DCP INDEX 01 00:00:00


Трекер:  [ 25-Сен-2013 08:17 ]

  

Скачать .torrent

Размер .torrent файла 16 KB


Размер: 387 MB
Хэш (hash) релиза: cab1b72a59e4b9d2c96365d7b0d99b4c2661ec24

Еще никто не оставлял запись к записи скачать торрент Kaly Live Dub - Lightin The Shadows - 2010, FLAC . Будь первым!

!Обратная связь