Tomo-chan wa Onnanoko! 828 | Regarder Le Film | [FootsieBabes.com / 21Sextury.com] Charisma Capelli (Irresistable Charisma) [28.04.2012 г., Blonde, Natural Tits, Tatooed, Foot, Oral, Hardcore, Cumshot, 1080p]

Скачать через торрент музыку U-Roy - Smile a While - 1993, FLAC бесплатно без регистрации torrent

Статистика раздачи
Размер:  300 MB   |    Зарегистрирован:  4 года 9 месяцев   |    .torrent скачан:  49 раз   |   
Раздают:  1  
   
загрузка...
 
Автор Сообщение

Polarnik

avatar Polarnik


♦ U-Roy - Smile a While ♦

Жанр: Reggae, Roots, DJ
Страна-производитель диска: USA
Год издания: 1993
Издатель (лейбл): Ariwa
Номер по каталогу: ARICD 085
Аудиокодек: FLAC (*.flac)
Тип рипа: image+.cue
Битрейт аудио: lossless
Продолжительность: 00:47:07
Источник (релизер): dreadbull
Наличие сканов в содержимом раздачи: да

Треклист:

01. Smile A While [04:09]
02. I''m A Rasta Man [04:02]
03. A Chapter A Day [03:51]
04. Steppin Pon De Right Track [02:42]
05. Freedom [03:31]
06. The Hurt Is Good [03:42]
07. Can''t Do Them Time [03:50]
08. Lip Service [04:39]
09. More Love [03:21]
10. Choice Dj [04:04]
11. Leaders Of The World [04:01]
12. Unity In the Community [05:11]
Exact Audio Copy V1.0 beta 3 from 29. August 2011

EAC extraction logfile from 27. June 2013, 16:11

Uroy / Smile A While

Used drive : ASUS DRW-22B2L Adapter: 0 ID: 0

Read mode : SecureUtilize accurate stream : YesDefeat audio cache : YesMake use of C2 pointers : No

Read offset correction : 6Overread into Lead-In and Lead-Out : NoFill up missing offset samples with silence : YesDelete leading and trailing silent blocks : NoNull samples used in CRC calculations : YesUsed interface : Native Win32 interface for Win NT & 2000

Used output format : User Defined EncoderSelected bitrate : 128 kBit/sQuality : HighAdd ID3 tag : YesCommand line compressor : C:\Program Files\FLAC\flac.exeAdditional command line options : -8 -V -T "ARTIST=%artist%" -T "TITLE=%title%" -T "ALBUM=%albumtitle%" -T "DATE=%year%" -T "TRACKNUMBER=%tracknr%" -T "GENRE=%genre%" -T "PERFORMER=%albuminterpret%" -T "COMPOSER=%composer%" %haslyrics%--tag-from-file=LYRICS="%lyricsfile%"%haslyrics% -T "ALBUMARTIST=%albumartist%" -T "DISCNUMBER=%cdnumber%" -T "TOTALDISCS=%totalcds%" -T "TOTALTRACKS=%numtracks%" -T "COMMENT=%comment%" %source% -o %dest%

TOC of the extracted CD

Track | Start | Length | Start sector | End sector --------------------------------------------------------- 1 | 0:00.55 | 4:09.00 | 55 | 18729 2 | 4:09.55 | 4:02.17 | 18730 | 36896 3 | 8:11.72 | 3:51.58 | 36897 | 54279 4 | 12:03.55 | 2:42.15 | 54280 | 66444 5 | 14:45.70 | 3:31.10 | 66445 | 82279 6 | 18:17.05 | 3:42.25 | 82280 | 98954 7 | 21:59.30 | 3:50.65 | 98955 | 116269 8 | 25:50.20 | 4:39.22 | 116270 | 137216 9 | 30:29.42 | 3:21.30 | 137217 | 152321 10 | 33:50.72 | 4:04.65 | 152322 | 170686 11 | 37:55.62 | 4:01.15 | 170687 | 188776 12 | 41:57.02 | 5:11.53 | 188777 | 212154

Range status and errors

Selected range

Filename F:\Donkey Files\U-Roy - Smile A While (1993, Ariwa) [eac-flac-scans] byDrBull\Uroy - Smile A While.wav

Peak level 97.2 % Extraction speed 2.9 X Range quality 100.0 % Test CRC B9D2E6C4 Copy CRC B9D2E6C4 Copy OK

No errors occurred

AccurateRip summary

Track 1 not present in databaseTrack 2 not present in databaseTrack 3 not present in databaseTrack 4 not present in databaseTrack 5 not present in databaseTrack 6 not present in databaseTrack 7 not present in databaseTrack 8 not present in databaseTrack 9 not present in databaseTrack 10 not present in databaseTrack 11 not present in databaseTrack 12 not present in database

None of the tracks are present in the AccurateRip database

End of status report

==== Log checksum D3A5EB3BC78A941B3811778A2A2A8316E5BC223BDFF0880AD0DD67A1FDF5FC35 ====
REM GENRE ReggaeREM DATE 1993REM DISCID 9D0B0C0CREM COMMENT "ExactAudioCopy v1.0b3"PERFORMER "Uroy"TITLE "Smile A While"FILE "Uroy - Smile A While.flac" WAVE TRACK 01 AUDIO TITLE "Smile A While" PERFORMER "Uroy" INDEX 00 00:00:00 INDEX 01 00:00:55 TRACK 02 AUDIO TITLE "I''m A Rasta Man" PERFORMER "Uroy" INDEX 00 04:07:33 INDEX 01 04:09:55 TRACK 03 AUDIO TITLE "A Chapter A Day" PERFORMER "Uroy" INDEX 00 08:08:60 INDEX 01 08:11:72 TRACK 04 AUDIO TITLE "Steppin Pon De Right Track" PERFORMER "Uroy" INDEX 00 12:00:43 INDEX 01 12:03:55 TRACK 05 AUDIO TITLE "Freedom" PERFORMER "Uroy" INDEX 00 14:41:03 INDEX 01 14:45:70 TRACK 06 AUDIO TITLE "The Hurt Is Good" PERFORMER "Uroy" INDEX 00 18:13:48 INDEX 01 18:17:05 TRACK 07 AUDIO TITLE "Can''t Do Them Time" PERFORMER "Uroy" INDEX 00 21:56:33 INDEX 01 21:59:30 TRACK 08 AUDIO TITLE "Lip Service" PERFORMER "Uroy" INDEX 00 25:44:40 INDEX 01 25:50:20 TRACK 09 AUDIO TITLE "More Love" PERFORMER "Uroy" INDEX 00 30:27:08 INDEX 01 30:29:42 TRACK 10 AUDIO TITLE "Choice Dj" PERFORMER "Uroy" INDEX 00 33:47:38 INDEX 01 33:50:72 TRACK 11 AUDIO TITLE "Leaders Of The World" PERFORMER "Uroy" INDEX 00 37:51:28 INDEX 01 37:55:62 TRACK 12 AUDIO TITLE "Unity In the Community" PERFORMER "Uroy" INDEX 00 41:54:08 INDEX 01 41:57:02
Drum & Bass - Steel, Preacher, Mafia & Fluxy;
Guitars - Black Steel, Jerry Lyons, Errol The General;
Keyboards - Jermaine Cross, Steel, Sandra Cross, Mafia Sgt. Pepper;
Brass - Vin Gordon, Michael "Bummie" Rose, Winston Rose, Nile Hailstones;
Mixing - Mad Professor & Black Steel.


Трекер:  [ 25-Сен-2013 08:19 ]

  

Скачать .torrent

Размер .torrent файла 12 KB


Размер: 300 MB
Хэш (hash) релиза: 44f81b28c812ca71a183f21d752f527528a2622a

Еще никто не оставлял запись к записи скачать торрент U-Roy - Smile a While - 1993, FLAC . Будь первым!

!Обратная связь