ReGenesis | Fashionista 2016 1080p AMZN WEB-DL DDP5 1 H 264-NTG 27 minutes | ♫Katanah

Скачать через торрент музыку Audio Active - Happy Happer - 1995, FLAC бесплатно без регистрации torrent

Статистика раздачи
Размер:  398 MB   |    Зарегистрирован:  4 года 9 месяцев   |    .torrent скачан:  55 раз   |   
Раздают:  1  
   
загрузка...
 
Автор Сообщение

Polarnik

avatar Polarnik


Audio Active / Happy Happer

Жанр: Dub, Electronic
Страна-производитель диска: UK
Год издания: 1995
Издатель (лейбл): On-U Sound
Номер по каталогу: ON-U CD 77
Страна: Japan
Аудиокодек: FLAC (*.flac)
Тип рипа: tracks+.cue
Битрейт аудио: lossless
Продолжительность: 00:56:17
Источник (релизер): what.cd
Наличие сканов в содержимом раздачи: да
Треклист:
1. Audio Active''s Adventure In Time & Space
2. Happy Shopper
3. Mammoth Galactica
4. 24 Hours Explorations
5. Electric Bombardment
6. Hot Water
7. Jerked + Shocked
8. Frog In The Well
9. Dub Out Of The Well
10. Wah Wah Zoo Mars
11. Dub In An Abyss
12. The Adventure Is Still Going On (Adventure In Time & Space Pt. 2)
Exact Audio Copy V0.99 prebeta 5 from 4. May 2009

EAC extraction logfile from 8. June 2011, 22:53

Audio Active / Happy Happer

Used drive : HL-DT-STDVD-ROM GDR8162B Adapter: 3 ID: 1

Read mode : SecureUtilize accurate stream : YesDefeat audio cache : YesMake use of C2 pointers : No

Read offset correction : 102Overread into Lead-In and Lead-Out : NoFill up missing offset samples with silence : YesDelete leading and trailing silent blocks : NoNull samples used in CRC calculations : YesUsed interface : Native Win32 interface for Win NT & 2000Gap handling : Appended to previous track

Used output format : User Defined EncoderSelected bitrate : 896 kBit/sQuality : HighAdd ID3 tag : NoCommand line compressor : C:\Program Files\Exact Audio Copy\Flac\flac.exeAdditional command line options : -V -8 -T "artist=%a" -T "title=%t" -T "album=%g" -T "date=%y" -T "tracknumber=%n" -T "genre=%m" %s

TOC of the extracted CD

Track | Start | Length | Start sector | End sector --------------------------------------------------------- 1 | 0:00.00 | 2:40.72 | 0 | 12071 2 | 2:40.72 | 5:30.60 | 12072 | 36881 3 | 8:11.57 | 6:39.43 | 36882 | 66849 4 | 14:51.25 | 5:47.00 | 66850 | 92874 5 | 20:38.25 | 5:17.05 | 92875 | 116654 6 | 25:55.30 | 4:16.22 | 116655 | 135876 7 | 30:11.52 | 3:52.08 | 135877 | 153284 8 | 34:03.60 | 5:05.60 | 153285 | 176219 9 | 39:09.45 | 3:26.22 | 176220 | 191691 10 | 42:35.67 | 5:18.25 | 191692 | 215566 11 | 47:54.17 | 4:33.25 | 215567 | 236066 12 | 52:27.42 | 3:49.58 | 236067 | 253299

Track 1

Filename J:\Audio Active - Happy Happer (1995) [On-U Sound Records ON-U CD 77]\01 Audio Active''s Adventure In Time & Space.wav

Pre-gap length 0:00:02.00

Peak level 100.0 % Track quality 100.0 % Test CRC EAFE8667 Copy CRC EAFE8667 Accurately ripped (confidence 1) [9D14612D] Copy OK

Track 2

Filename J:\Audio Active - Happy Happer (1995) [On-U Sound Records ON-U CD 77]\02 Happy Shopper.wav

Peak level 100.0 % Track quality 100.0 % Test CRC AD7DA45C Copy CRC AD7DA45C Accurately ripped (confidence 1) [DDB92E5C] Copy OK

Track 3

Filename J:\Audio Active - Happy Happer (1995) [On-U Sound Records ON-U CD 77]\03 Mammoth Galactica.wav

Peak level 100.0 % Track quality 100.0 % Test CRC 9D1CC522 Copy CRC 9D1CC522 Accurately ripped (confidence 1) [FF1240D7] Copy OK

Track 4

Filename J:\Audio Active - Happy Happer (1995) [On-U Sound Records ON-U CD 77]\04 24 Hours Explorations.wav

Peak level 100.0 % Track quality 99.9 % Test CRC 6815EF81 Copy CRC 6815EF81 Accurately ripped (confidence 1) [2F1BFB65] Copy OK

Track 5

Filename J:\Audio Active - Happy Happer (1995) [On-U Sound Records ON-U CD 77]\05 Electric Bombardment.wav

Peak level 100.0 % Track quality 100.0 % Test CRC 72F97DDB Copy CRC 72F97DDB Accurately ripped (confidence 1) [197EA9A3] Copy OK

Track 6

Filename J:\Audio Active - Happy Happer (1995) [On-U Sound Records ON-U CD 77]\06 Hot Water.wav

Peak level 100.0 % Track quality 100.0 % Test CRC 15545751 Copy CRC 15545751 Accurately ripped (confidence 1) [2754394A] Copy OK

Track 7

Filename J:\Audio Active - Happy Happer (1995) [On-U Sound Records ON-U CD 77]\07 Jerked + Shocked.wav

Peak level 100.0 % Track quality 99.9 % Test CRC EF31DEE5 Copy CRC EF31DEE5 Accurately ripped (confidence 1) [9692190C] Copy OK

Track 8

Filename J:\Audio Active - Happy Happer (1995) [On-U Sound Records ON-U CD 77]\08 Frog In The Well.wav

Peak level 100.0 % Track quality 100.0 % Test CRC 18BF1101 Copy CRC 18BF1101 Accurately ripped (confidence 1) [84FC88B6] Copy OK

Track 9

Filename J:\Audio Active - Happy Happer (1995) [On-U Sound Records ON-U CD 77]\09 Dub Out Of The Well.wav

Peak level 100.0 % Track quality 100.0 % Test CRC B224AF5E Copy CRC B224AF5E Accurately ripped (confidence 1) [622896FA] Copy OK

Track 10

Filename J:\Audio Active - Happy Happer (1995) [On-U Sound Records ON-U CD 77]\10 Wah Wah Zoo Mars.wav

Peak level 100.0 % Track quality 100.0 % Test CRC 8E6DFF49 Copy CRC 8E6DFF49 Accurately ripped (confidence 1) [F4F830E2] Copy OK

Track 11

Filename J:\Audio Active - Happy Happer (1995) [On-U Sound Records ON-U CD 77]\11 Dub In An Abyss.wav

Peak level 100.0 % Track quality 100.0 % Test CRC 894E5EA8 Copy CRC 894E5EA8 Accurately ripped (confidence 1) [64A013B4] Copy OK

Track 12

Filename J:\Audio Active - Happy Happer (1995) [On-U Sound Records ON-U CD 77]\12 The Adventure Is Stilll Going On (Adventure In Time & Space Pt. 2).wav

Peak level 100.0 % Track quality 100.0 % Test CRC CB8ABBF1 Copy CRC CB8ABBF1 Accurately ripped (confidence 1) [7E054388] Copy OK

All tracks accurately ripped

No errors occurred

End of status report
REM GENRE DubREM DATE 1995REM DISCID A60D310CREM COMMENT "ExactAudioCopy v0.99pb5"PERFORMER "Audio Active"TITLE "Happy Happer"FILE "01 Audio Active''s Adventure In Time & Space.wav" WAVE TRACK 01 AUDIO TITLE "Audio Active''s Adventure In Time & Space" PERFORMER "Audio Active" INDEX 01 00:00:00FILE "02 Happy Shopper.wav" WAVE TRACK 02 AUDIO TITLE "Happy Shopper" PERFORMER "Audio Active" INDEX 01 00:00:00FILE "03 Mammoth Galactica.wav" WAVE TRACK 03 AUDIO TITLE "Mammoth Galactica" PERFORMER "Audio Active" INDEX 01 00:00:00FILE "04 24 Hours Explorations.wav" WAVE TRACK 04 AUDIO TITLE "24 Hours Explorations" PERFORMER "Audio Active" INDEX 01 00:00:00FILE "05 Electric Bombardment.wav" WAVE TRACK 05 AUDIO TITLE "Electric Bombardment" PERFORMER "Audio Active" INDEX 01 00:00:00FILE "06 Hot Water.wav" WAVE TRACK 06 AUDIO TITLE "Hot Water" PERFORMER "Audio Active" INDEX 01 00:00:00FILE "07 Jerked + Shocked.wav" WAVE TRACK 07 AUDIO TITLE "Jerked + Shocked" PERFORMER "Audio Active" INDEX 01 00:00:00FILE "08 Frog In The Well.wav" WAVE TRACK 08 AUDIO TITLE "Frog In The Well" PERFORMER "Audio Active" INDEX 01 00:00:00FILE "09 Dub Out Of The Well.wav" WAVE TRACK 09 AUDIO TITLE "Dub Out Of The Well" PERFORMER "Audio Active" INDEX 01 00:00:00FILE "10 Wah Wah Zoo Mars.wav" WAVE TRACK 10 AUDIO TITLE "Wah Wah Zoo Mars" PERFORMER "Audio Active" INDEX 01 00:00:00FILE "11 Dub In An Abyss.wav" WAVE TRACK 11 AUDIO TITLE "Dub In An Abyss" PERFORMER "Audio Active" INDEX 01 00:00:00FILE "12 The Adventure Is Stilll Going On (Adventure In Time & Space Pt. 2).wav" WAVE TRACK 12 AUDIO TITLE "The Adventure Is Stilll Going On (Adventure In Time & Space Pt. 2)" PERFORMER "Audio Active" INDEX 01 00:00:00


Трекер:  [ 25-Сен-2013 08:20 ]

  

Скачать .torrent

Размер .torrent файла 17 KB


Размер: 398 MB
Хэш (hash) релиза: f0bb2a70d295861c127380631f6030ae0e615e1c

Еще никто не оставлял запись к записи скачать торрент Audio Active - Happy Happer - 1995, FLAC . Будь первым!

!Обратная связь