Motive S04E04 HDTV x264-BAJSKORV[ettv] | A Beginners Guide to Excel 2011 for Mac | Adventure Time S09E16 HDTV x264-W4F [eztv]

Скачать через торрент музыку Hellsing OST 1 RAID бесплатно без регистрации torrent

Статистика раздачи
Размер:  384 MB   |    Зарегистрирован:  7 лет 9 месяцев   |    .torrent скачан:  114 раз   |   
Раздают:  1  
   
загрузка...
 
Автор Сообщение

bot

avatar bot


Hellsing OST 1 RAID lossless (Japan HDCD релиз)

Жанр: OST
Год выпуска диска: 2002
Производитель диска: Japan
Аудио кодек: APE
Тип рипа: image+.cue
Битрейт аудио: lossless
Продолжительность: 1:03:31
Трэклист:
01. World without logos [4:06]
02. Double-Crossed Fool ~ Prohibited Resentment ~ [3:40]
03. Musical Entertainment: Nenge Mishou [3:56]
04. Strange Victory Act, Lotus Flower Theme [4:58]
05. An offering to the Gods - I will do as freely as I wish [2:14]
06. Falling into a trap with a sexy lure [2:47]
07. R&R with Saint Dracula [3:34]
08. P.S. Lord have mercy on me [2:43]
09. Sea of Chaos ~ Expectations of the Creator ~ [3:33]
10. The Original Sin - Because he could not protect the virgin [3:20]
11. Bodhisattva Cathedral [4:51]
12. Toll of the Masked Priest''s Chapel [2:06]
13. Divine Act of Satan [1:37]
14. Pure Dead [3:00]
15. Overly denotational dishonest road [3:03]
16. Vague Drum of Grief [2:52]
17. Purest Person''s Requiem [3:34]
18. Faulty Neurosis-like tune ~ What the hell are you guys? ~ [2:30]
19. If you''re going to war, fight with bows, spears and swords! [3:37]
20. Mr.Big - Shine [1:21]
Доп. информация:
Exact Audio Copy V0.99 prebeta 4 from 23. January 2008

Отчёт EAC об извлечении, выполненном 9. января 2009, 1:08

Hellsing Original Soundtrack / Hellsing OST 1 RAID

Дисковод: PIONEER DVD-RW DVR-108 Adapter: 1 ID: 0

Режим чтения : Достоверность
Использование точного потока : Да
Отключение кэша аудио : Да
Использование указателей C2 : Нет

Коррекция смещения при чтении : 48
Способность читать области Lead-in и Lead-out : Нет
Заполнение пропущенных сэмплов тишиной : Да
Удаление блоков с тишиной в начале и конце : Нет
При вычислениях CRC использовались нулевые сэмплы : Да
Интерфейс : Установленный внешний ASPI-интерфейс

Выходной формат : Внутренние WAV-операции
Формат сэмплов : 44.100 Гц; 16 бит; стерео

TOC извлечённого CD

Трек | Старт | Длительность | Начальный сектор | Конечный сектор
---------------------------------------------------------------------
1 | 0:00.00 | 4:06.70 | 0 | 18519
2 | 4:06.70 | 3:40.27 | 18520 | 35046
3 | 7:47.22 | 3:56.00 | 35047 | 52746
4 | 11:43.22 | 4:58.55 | 52747 | 75151
5 | 16:42.02 | 2:14.70 | 75152 | 85271
6 | 18:56.72 | 2:47.60 | 85272 | 97856
7 | 21:44.57 | 3:34.50 | 97857 | 113956
8 | 25:19.32 | 2:43.33 | 113957 | 126214
9 | 28:02.65 | 3:33.65 | 126215 | 142254
10 | 31:36.55 | 3:20.42 | 142255 | 157296
11 | 34:57.22 | 4:51.30 | 157297 | 179151
12 | 39:48.52 | 2:06.38 | 179152 | 188639
13 | 41:55.15 | 1:37.10 | 188640 | 195924
14 | 43:32.25 | 3:00.17 | 195925 | 209441
15 | 46:32.42 | 3:03.15 | 209442 | 223181
16 | 49:35.57 | 2:52.55 | 223182 | 236136
17 | 52:28.37 | 3:34.05 | 236137 | 252191
18 | 56:02.42 | 2:30.03 | 252192 | 263444
19 | 58:32.45 | 3:37.07 | 263445 | 279726
20 | 62:09.52 | 1:21.00 | 279727 | 285801

Характеристики диапазона извлечения и сообщения об ошибках

Выбранный диапазон

Имя файла D:\temp\Hellsing Original Soundtrack - Hellsing OST 1 RAID.wav

Пиковый уровень 98.3 %
Качество диапазона 100.0 %
CRC копии 38D9AF9B
Копирование... OK

Ошибок не произошло

AccurateRip: сводка

Трек 1 точность не определена (достоверность 2) [DFA5042D], AccurateRip вернул [2F1CBF13]
Трек 2 точность не определена (достоверность 2) [B88D92D7], AccurateRip вернул [C69611E4]
Трек 3 точность не определена (достоверность 2) [10952AEB], AccurateRip вернул [41B82081]
Трек 4 точность не определена (достоверность 2) [E7310C22], AccurateRip вернул [08E9CCBA]
Трек 5 точность не определена (достоверность 2) [7F40D36D], AccurateRip вернул [157A65FF]
Трек 6 точность не определена (достоверность 2) [702267FD], AccurateRip вернул [B3246664]
Трек 7 точность не определена (достоверность 2) [3213EED9], AccurateRip вернул [64CD93A0]
Трек 8 точность не определена (достоверность 2) [8645BFBD], AccurateRip вернул [2A57985F]
Трек 9 точность не определена (достоверность 2) [AD506937], AccurateRip вернул [094C83CB]
Трек 10 точность не определена (достоверность 2) [B358FC07], AccurateRip вернул [582F069A]
Трек 11 точность не определена (достоверность 2) [BF466C8F], AccurateRip вернул [21F85EB5]
Трек 12 точность не определена (достоверность 2) [FB957EDD], AccurateRip вернул [233F875A]
Трек 13 точность не определена (достоверность 2) [5EAE92EC], AccurateRip вернул [6297ADE0]
Трек 14 точность не определена (достоверность 2) [4F61E868], AccurateRip вернул [6F784430]
Трек 15 точность не определена (достоверность 2) [05EECD6B], AccurateRip вернул [B917BC9E]
Трек 16 точность не определена (достоверность 2) [7A5BB054], AccurateRip вернул [B0B40C5E]
Трек 17 точность не определена (достоверность 2) [41AFC8D9], AccurateRip вернул [851C3BE9]
Трек 18 точность не определена (достоверность 2) [79C8D999], AccurateRip вернул [24E1C617]
Трек 19 точность не определена (достоверность 2) [FC03BE6C], AccurateRip вернул [10AF011F]
Трек 20 точность не определена (достоверность 2) [F7BC3C0F], AccurateRip вернул [3F4E0E0A]

Ни один трек не прошёл проверки на точность
В вашей базе может быть иной вариант штамповки диска

Конец отчёта


Трекер:  [ 16-Окт-2010 17:49 ]

  

Скачать .torrent

Размер .torrent файла 16 KB


Размер: 384 MB
Хэш (hash) релиза: 5ac4beccf4ff1779b0b1af819bd9ba08cdee9064

Еще никто не оставлял запись к записи скачать торрент Hellsing OST 1 RAID . Будь первым!

!Обратная связь