Angel Beats Alchemy.mp3 | Terra Formars | dataup.tv

Скачать через торрент музыку Стальной алхимик: Братство Fullmetal Alchemist: Brotherhood бесплатно без регистрации torrent

Статистика раздачи
Размер:  2.02 GB   |    Зарегистрирован:  7 лет 10 месяцев   |    .torrent скачан:  135 раз   |   
Раздают:  1  
   
загрузка...
 
Автор Сообщение

bot

avatar bot




Жанр: j-Rock/j-Pop
Год выпуска диска: 2009-2010
Производитель диска: Япония

Аудио кодек: FLAC
Тип рипа: tracks
Битрейт аудио: ~977 kbps

Общая продолжительность: 2:26:19



Fullmetal Alchemist Brotherhood
OP Single
YUI - Again


Исполнитель: YUI

Дата выпуска диска: 3 июня 2009

Продолжительность: 15 мин 47 сек

Трэклист:
01. again (4:18)
02. Sea (3:35)
03. SUMMER SONG -YUI Acoustic Version- (3:30)
04. again -Instrumental- (4:16)

Доп. информация: + SCANS

AUDIOCHECKER v1.2 - by Dester - [email protected]~~~~~~~~~~~~~~~~~

1 -===- D:\MUSIC\OST\Fullmetal Alchemist - Brotherhood\OP Single-again (FLAC)\01 again.flac Extracted successfully Conclusion: This track looks like CDDA with probability 100%

2 -===- D:\MUSIC\OST\Fullmetal Alchemist - Brotherhood\OP Single-again (FLAC)\02 Sea.flac Extracted successfully Conclusion: This track looks like CDDA with probability 100%

3 -===- D:\MUSIC\OST\Fullmetal Alchemist - Brotherhood\OP Single-again (FLAC)\03 SUMMER SONG -YUI Acoustic Version-.flac Extracted successfully Conclusion: This track looks like CDDA with probability 100%

4 -===- D:\MUSIC\OST\Fullmetal Alchemist - Brotherhood\OP Single-again (FLAC)\04 again -Instrumental-.flac Extracted successfully Conclusion: This track looks like CDDA with probability 100%


Fullmetal Alchemist Brotherhood
ED Single
SID - Uso


Исполнитель: SID

Дата выпуска диска: 29 апреля 2009

Продолжительность: 12 мин 13 сек

Трэклист:
01. SID - Uso (3:28)
02. SID - Higasa (5:11)
03. SID - Yuukan Collection (Live at Nihon Budoukan 2008.11.2.) (3:35)


Доп. информация: + SCANS

AUDIOCHECKER v1.2 - by Dester - [email protected]~~~~~~~~~~~~~~~~~

1 -===- D:\MUSIC\OST\Fullmetal Alchemist - Brotherhood\ED Single - Uso (FLAC)\01 Uso.flac Extracted successfully Conclusion: This track looks like CDDA with probability 100%

2 -===- D:\MUSIC\OST\Fullmetal Alchemist - Brotherhood\ED Single - Uso (FLAC)\02 Higasa.flac Extracted successfully Conclusion: This track looks like CDDA with probability 100%

3 -===- D:\MUSIC\OST\Fullmetal Alchemist - Brotherhood\ED Single - Uso (FLAC)\03 Yuukan Collection (Live at Nihon Budoukan 2008.11.2.).flac Extracted successfully Conclusion: This track looks like CDDA with probability 100%


Fullmetal Alchemist Brotherhood
OP2 Single
NICO Touches the Walls - Hologram


Исполнитель: NICO Touches the Walls

Дата выпуска диска: 12 августа 2009

Продолжительность: 18 мин 38 сек

Трэклист:
01. Hologram (4:09)
02. Fuujin (4:19)
03. Aitai Kimochi (4:22)
04. Hologram ANIME Ver. (1:42)
05. Hologram instrumental (4:08)


Доп. информация: + SCANS

~~~~~~~~~~~~~~~~~

Started at: вторник, 15. 09. 2009. - 15:53.29
5 files found

1 -===- D:\MUSIC\OST\Fullmetal Alchemist - Brotherhood\OP2 Single - Hologram (FLAC)\01 Hologram.flac
Extracted successfully
Conclusion: this track is CDDA with probability 100%
Tempfile successfully deleted.

2 -===- D:\MUSIC\OST\Fullmetal Alchemist - Brotherhood\OP2 Single - Hologram (FLAC)\02 Fuujin.flac
Extracted successfully
Conclusion: this track is CDDA with probability 100%
Tempfile successfully deleted.

3 -===- D:\MUSIC\OST\Fullmetal Alchemist - Brotherhood\OP2 Single - Hologram (FLAC)\03 Aitai Kimochi.flac
Extracted successfully
Conclusion: this track is CDDA with probability 100%
Tempfile successfully deleted.

4 -===- D:\MUSIC\OST\Fullmetal Alchemist - Brotherhood\OP2 Single - Hologram (FLAC)\04 Hologram ANIME Ver..flac
Extracted successfully
Conclusion: this track is CDDA with probability 100%
Tempfile successfully deleted.

5 -===- D:\MUSIC\OST\Fullmetal Alchemist - Brotherhood\OP2 Single - Hologram (FLAC)\05 Hologram instrumental.flac
Extracted successfully
Conclusion: this track is CDDA with probability 100%
Tempfile successfully deleted.

Finished at: вторник, 15. 09. 2009. - 15:55.40 (operation time: 0:02.11)


Fullmetal Alchemist Brotherhood
ED2 Single
Fukuhara Miho - Let it Out


Исполнитель: Fukuhara Miho

Дата выпуска диска: 9 сентября 2009

Продолжительность: 10 мин 10 сек

Трэклист:

01. LET IT OUT (4:20)
02. LET IT OUT -"Hagane no Renkinjutsushi FULLMETAL ALCHEMIST" ED Ver.- (1:34)
03. LET IT OUT instrumental (4:17)


Доп. информация: + SCANS

~~~~~~~~~~~~~~~~~

Started at: вторник, 15. 09. 2009. - 16:10.093 files found

1 -===- D:\MUSIC\OST\Fullmetal Alchemist - Brotherhood\ED2 Single - LET IT OUT (FLAC)\01 LET IT OUT.flac Extracted successfully Conclusion: this track is CDDA with probability 100% Tempfile successfully deleted.

2 -===- D:\MUSIC\OST\Fullmetal Alchemist - Brotherhood\ED2 Single - LET IT OUT (FLAC)\02 LET IT OUT -''Hagane no Renkinjutsushi FULLMETAL ALCHEMIST'' ED Ver.-.flac Extracted successfully Conclusion: this track is CDDA with probability 100% Tempfile successfully deleted.

3 -===- D:\MUSIC\OST\Fullmetal Alchemist - Brotherhood\ED2 Single - LET IT OUT (FLAC)\03 LET IT OUT instrumental.flac Extracted successfully Conclusion: this track is CDDA with probability 100% Tempfile successfully deleted.

Finished at: вторник, 15. 09. 2009. - 16:11.22 (operation time: 0:01.12)


Fullmetal Alchemist Brotherhood
OP3 Single
Sukima Switch - Golden Time Lover


Исполнитель: Sukima Switch

Дата выпуска диска: 14 октября 2009

Продолжительность: 18 мин 42 сек

Трэклист:

01. Golden Time Lover (5:44)
02. Tameiki (4:28)
03. B Angle (2:51)
04. Golden Time Lover (backing track) (5:40)


Доп. информация: + SCANS

AUDIOCHECKER v2.0 beta (build 457) - by Dester - [email protected]~~~~~~~~~~~~~~~~~~~~~~~~~~~~~~~~~~

Started at: понедельник, 19. 10. 2009. - 21:59.454 files found

1 -===- D:\Music\OST\Fullmetal Alchemist - Brotherhood\OP3 Single - Golden Time Lover (FLAC)\01 Golden Time Lover.flac Extracted successfully Conclusion: this track is CDDA with probability 99% Tempfile successfully deleted.

2 -===- D:\Music\OST\Fullmetal Alchemist - Brotherhood\OP3 Single - Golden Time Lover (FLAC)\02 Tameiki.flac Extracted successfully Conclusion: this track is MPEG with probability 85% Tempfile successfully deleted.

3 -===- D:\Music\OST\Fullmetal Alchemist - Brotherhood\OP3 Single - Golden Time Lover (FLAC)\03 B Angle.flac Extracted successfully Conclusion: this track is CDDA with probability 100% Tempfile successfully deleted.

4 -===- D:\Music\OST\Fullmetal Alchemist - Brotherhood\OP3 Single - Golden Time Lover (FLAC)\04 Golden Time Lover (backing track).flac Extracted successfully Conclusion: this track is CDDA with probability 94% Tempfile successfully deleted.

Finished at: понедельник, 19. 10. 2009. - 22:01.20 (operation time: 0:01.35)


Fullmetal Alchemist Brotherhood
ED3 Single
Lil''B - Tsunaida Te


Исполнитель: Lil''B

Дата выпуска диска: 11 ноября 2009

Продолжительность: 20 мин 08 сек

Трэклист:

01. Tsunaida Te (4:40)
02. Last Letter (4:41)
03. KISS -one more kiss mix- (4:39)
04. Tsunaida Te -TV version- (1:31)
05. Tsunaida Te -karaoke- (4:39)


Доп. информация: + SCANS

AUDIOCHECKER v2.0 beta (build 457) - by Dester - [email protected]~~~~~~~~~~~~~~~~~~~~~~~~~~~~~~~~~~

Started at: четверг, 04. 12. 2009. - 8:20.145 files found

1 -===- D:\Music\OST\Fullmetal Alchemist - Brotherhood\ED3 Single - Tsunaida Te (FLAC)\01 Tsunaida Te.flac Extracted successfully Conclusion: this track is CDDA with probability 100% Tempfile successfully deleted.

2 -===- D:\Music\OST\Fullmetal Alchemist - Brotherhood\ED3 Single - Tsunaida Te (FLAC)\02 Last Letter.flac Extracted successfully Conclusion: this track is CDDA with probability 100% Tempfile successfully deleted.

3 -===- D:\Music\OST\Fullmetal Alchemist - Brotherhood\ED3 Single - Tsunaida Te (FLAC)\03 KISS -one more kiss mix-.flac Extracted successfully Conclusion: this track is CDDA with probability 100% Tempfile successfully deleted.

4 -===- D:\Music\OST\Fullmetal Alchemist - Brotherhood\ED3 Single - Tsunaida Te (FLAC)\04 Tsunaida Te -TV version-.flac Extracted successfully Conclusion: this track is CDDA with probability 100% Tempfile successfully deleted.

5 -===- D:\Music\OST\Fullmetal Alchemist - Brotherhood\ED3 Single - Tsunaida Te (FLAC)\05 Tsunaida Te -karaoke-.flac Extracted successfully Conclusion: this track is CDDA with probability 100% Tempfile successfully deleted.

Finished at: четверг, 04. 12. 2009. - 8:21.57 (operation time: 0:01.42)


Fullmetal Alchemist Brotherhood
OP4 Single
CHEMISTRY - Period


Исполнитель: CHEMISTRY

Дата выпуска диска: 27 января 2010

Продолжительность: 16 мин 48 сек

Трэклист:

01. Period (3:37)
02. Brandnew Season -Yume no Joushaken- (4:49)
03. Period (Leadless Vocal) (3:37)
04. Brandnew Season -Yume no Joushaken- (Leadless Vocal) (4:45)


Доп. информация: + SCANS

AUDIOCHECKER v2.0 beta (build 457) - by Dester - [email protected]~~~~~~~~~~~~~~~~~~~~~~~~~~~~~~~~~~

Started at: среда, 10. 03. 2010. - 15:51.324 files found

1 -===- D:\Music\OST\Fullmetal Alchemist - Brotherhood\OP4 Single - Period (FLAC)\01 Period.flac Extracted successfully Conclusion: this track is CDDA with probability 100% Tempfile successfully deleted.

2 -===- D:\Music\OST\Fullmetal Alchemist - Brotherhood\OP4 Single - Period (FLAC)\02 Brandnew Season -Yume no Joushaken-.flac Extracted successfully Conclusion: this track is CDDA with probability 100% Tempfile successfully deleted.

3 -===- D:\Music\OST\Fullmetal Alchemist - Brotherhood\OP4 Single - Period (FLAC)\03 Period (Leadless Vocal).flac Extracted successfully Conclusion: this track is CDDA with probability 100% Tempfile successfully deleted.

4 -===- D:\Music\OST\Fullmetal Alchemist - Brotherhood\OP4 Single - Period (FLAC)\04 Brandnew Season -Yume no Joushaken- (Leadless Vocal).flac Extracted successfully Conclusion: this track is CDDA with probability 99% Tempfile successfully deleted.

Finished at: среда, 10. 03. 2010. - 15:53.08 (operation time: 0:01.35)


Fullmetal Alchemist Brotherhood
ED4 Single
SCANDAL - Shunkan Sentimental


Исполнитель: SCANDAL

Дата выпуска диска: 3 февраля 2010

Продолжительность: 16 мин 00 сек

Трэклист:

01. Shunkan Sentimental (3:47)
02. Hoshi no Furu Yoru ni (4:08)
03. Yumemiru Koro wo Sugite mo (4:22)
04. Shunkan Sentimental -"Hagane no Renkinjutsushi FULLMETAL ALCHEMIST" ED ver.- (1:34)
05. Shunkan Sentimental (Instrumental) (3:46)


Доп. информация: + SCANS

AUDIOCHECKER v2.0 beta (build 457) - by Dester - [email protected]~~~~~~~~~~~~~~~~~~~~~~~~~~~~~~~~~~

Started at: воскресенье, 14. 03. 2010. - 12:45.195 files found

1 -===- D:\Music\OST\Fullmetal Alchemist - Brotherhood\ED4 Single - Shunkan Sentimental (FLAC)\01 Shunkan Sentimental.flac Extracted successfully Conclusion: this track is CDDA with probability 100% Tempfile successfully deleted.

2 -===- D:\Music\OST\Fullmetal Alchemist - Brotherhood\ED4 Single - Shunkan Sentimental (FLAC)\02 Hoshi no Furu Yoru ni.flac Extracted successfully Conclusion: this track is CDDA with probability 100% Tempfile successfully deleted.

3 -===- D:\Music\OST\Fullmetal Alchemist - Brotherhood\ED4 Single - Shunkan Sentimental (FLAC)\03 Yumemiru Koro wo Sugite mo.flac Extracted successfully Conclusion: this track is CDDA with probability 100% Tempfile successfully deleted.

4 -===- D:\Music\OST\Fullmetal Alchemist - Brotherhood\ED4 Single - Shunkan Sentimental (FLAC)\04 Shunkan Sentimental -''Hagane no Renkinjutsushi FULLMETAL ALCHEMIST'' ED ver.-.flac Extracted successfully Conclusion: this track is CDDA with probability 100% Tempfile successfully deleted.

5 -===- D:\Music\OST\Fullmetal Alchemist - Brotherhood\ED4 Single - Shunkan Sentimental (FLAC)\05 Shunkan Sentimental (Instrumental).flac Extracted successfully Conclusion: this track is CDDA with probability 100% Tempfile successfully deleted.

Finished at: воскресенье, 14. 03. 2010. - 12:46.59 (operation time: 0:01.39)


Fullmetal Alchemist Brotherhood
OP5 Single
SID - Rain


Исполнитель: SID

Дата выпуска диска: 2 июня 2010

Продолжительность: 12 мин 38 сек

Трэклист:

01. Rain (4:16)
02. cut (3:40)
03. chapter 1 (Live from [Ichiban Suki na Basho 2010]) (4:42)


Доп. информация: + SCANS

Exact Audio Copy V0.99 prebeta 5 from 4. May 2009

EAC extraction logfile from 5. June 2010, 18:43

SID / Rain

Used drive : PIONEER BD-ROM BDC-202 Adapter: 3 ID: 0

Read mode : SecureUtilize accurate stream : YesDefeat audio cache : YesMake use of C2 pointers : No

Read offset correction : 637Overread into Lead-In and Lead-Out : NoFill up missing offset samples with silence : YesDelete leading and trailing silent blocks : NoNull samples used in CRC calculations : NoUsed interface : Native Win32 interface for Win NT & 2000

Used output format : Internal WAV RoutinesSample format : 44.100 Hz; 16 Bit; Stereo

TOC of the extracted CD

Track | Start | Length | Start sector | End sector --------------------------------------------------------- 1 | 0:00.00 | 4:16.16 | 0 | 19215 2 | 4:16.16 | 3:40.06 | 19216 | 35721 3 | 7:56.22 | 4:42.33 | 35722 | 56904

Range status and errors

Selected range

Filename R:\[EAC]\SID - Rain.wav

Peak level 100.0 % Range quality 100.0 % Copy CRC 36630321 Copy OK

No errors occurred

End of status report


Fullmetal Alchemist Brotherhood
ED5 Single
Nakagawa Shoko - RAY OF LIGHT


Исполнитель: Nakagawa Shoko

Дата выпуска диска: 28 апреля 2010

Продолжительность: 17 мин 23 сек

Трэклист:
01. RAY OF LIGHT (4:25)
02. diamond high (4:31)
03. calling location -Live version- (3:57)
04. RAY OF LIGHT -Instrumental- (4:25)


Доп. информация: + SCANS

Exact Audio Copy V0.99 prebeta 4 from 23. January 2008

EAC 取り込みログファイル 日付 : 4. 5月 2010, 12:43

中川翔子 / RAY OF LIGHT

使用ドライブ : PIONEER DVD-RW DVR-216D Adapter: 3 ID: 0

読み込みモード : セキュアモードドライブが正確なデータ転送能力を持つ : はいオーディオキャッシュを使用できる : はいC2エラー情報を検出する : いいえ

読み込みサンプルオフセット訂正値 : 66リードイン・リードアウトをオーバーリードする : いいえ欠落したオフセットサンプルを無音で補完する : はい曲の先頭と末端の無音領域を削除する : いいえCRC計算で無音のサンプルを使用するか : いいえ使用インターフェース : Win NT & 2000用のクラスドライバ

使用出力モード : 内蔵WAV出力ルーチンサンプルフォーマット : 44.100 Hz; 16 Bit; ステレオ

TOC情報を抜き出します

トラック | スタート | 長さ | 始めのセクター | 最終セクター ---------------------------------------------------------------- 1 | 0:00.00 | 4:26.05 | 0 | 19954 2 | 4:26.05 | 4:32.30 | 19955 | 40384 3 | 8:58.35 | 4:00.10 | 40385 | 58394 4 | 12:58.45 | 4:25.32 | 58395 | 78301

範囲取り込みステータス & エラー

選択された範囲

ファイル名 D:\temp\中川翔子 - RAY OF LIGHT.wav

ピークレベル 100.0 % 範囲取り込み品質 99.9 % コピーCRC C448B3FF コピー OK

エラーは発生しませんでした

ステータス報告完了


Fullmetal Alchemist Brotherhood
Original Sountrack №1

Исполнитель: Akira Senju

Дата выпуска диска: 14 октября 2009

Продолжительность: 01 час 04 мин 25 сек
01. Main Theme ~The Fullmetal Alchemist~ (3:43)
02. Laws of Alchemy (1:27)
03. again (TV Size) (1:40)
04. Nightfall in Central City (2:36)
05. Fire in the Sky (2:26)
06. Clash of the Alchemists (1:46)
07. Lurking (1:20)
08. Mist (2:29)
09. Spiral of Truth (1:25)
10. Mortal Sin (2:13)
11. One is All, All is One (1:40)
12. Requiem for the Brigadier General (2:28)
13. Uso (1:31)
14. Lullaby of Resembool (2:14)
15. Interlude (1:06)
16. Hologram (1:40)
17. Far East Suite (1:37)
18. Beneath the City (1:42)
19. Fifth Laboratory (2:46)
20. Fanfare for the Brave (1:28)
21. Trisha''s Lullaby (3:31)
22. Concerto ~Brotherhood~ (2:13)
23. Hum of the Streets (1:09)
24. Beyond the Walls (3:39)
25. Next Chapter (2:29)
26. Home ~en route to Resembool~ (1:15)
27. Lapis Philosophorum (2:58)
28. Happiness ~Requiem from "The Blind Alchemist"~ (2:05)
29. Home ~a house on the hill~ (2:03)
30. Overture ~Brotherhood~ (2:17)
31. LET IT OUT (TV Size) (1:31)
Доп. информация: + SCANS

Exact Audio Copy V0.99 prebeta 5 from 4. May 2009

EAC extraction logfile from 15. October 2009, 13:30

Unknown Artist / Unknown Title

Used drive : PHILIPS DVDR1648P1 Adapter: 4 ID: 0

Read mode : SecureUtilize accurate stream : YesDefeat audio cache : YesMake use of C2 pointers : No

Read offset correction : 618Overread into Lead-In and Lead-Out : NoFill up missing offset samples with silence : YesDelete leading and trailing silent blocks : NoNull samples used in CRC calculations : NoUsed interface : Native Win32 interface for Win NT & 2000Gap handling : Appended to previous track

Used output format : Internal WAV RoutinesSample format : 44.100 Hz; 16 Bit; Stereo

TOC of the extracted CD

Track | Start | Length | Start sector | End sector --------------------------------------------------------- 1 | 0:00.00 | 3:42.39 | 0 | 16688 2 | 3:42.39 | 1:27.11 | 16689 | 23224 3 | 5:09.50 | 1:39.69 | 23225 | 30718 4 | 6:49.44 | 2:35.71 | 30719 | 42414 5 | 9:25.40 | 2:25.41 | 42415 | 53330 6 | 11:51.06 | 1:45.42 | 53331 | 61247 7 | 13:36.48 | 1:20.24 | 61248 | 67271 8 | 14:56.72 | 2:29.36 | 67272 | 78482 9 | 17:26.33 | 1:25.01 | 78483 | 84858 10 | 18:51.34 | 2:12.50 | 84859 | 94808 11 | 21:04.09 | 1:39.62 | 94809 | 102295 12 | 22:43.71 | 2:28.18 | 102296 | 113413 13 | 25:12.14 | 1:31.11 | 113414 | 120249 14 | 26:43.25 | 2:13.58 | 120250 | 130282 15 | 28:57.08 | 1:05.41 | 130283 | 135198 16 | 30:02.49 | 1:39.68 | 135199 | 142691 17 | 31:42.42 | 1:36.60 | 142692 | 149951 18 | 33:19.27 | 1:41.51 | 149952 | 157577 19 | 35:01.03 | 2:45.56 | 157578 | 170008 20 | 37:46.59 | 1:28.32 | 170009 | 176640 21 | 39:15.16 | 3:31.04 | 176641 | 192469 22 | 42:46.20 | 2:13.25 | 192470 | 202469 23 | 44:59.45 | 1:08.58 | 202470 | 207627 24 | 46:08.28 | 3:38.71 | 207628 | 224048 25 | 49:47.24 | 2:28.60 | 224049 | 235208 26 | 52:16.09 | 1:14.45 | 235209 | 240803 27 | 53:30.54 | 2:58.25 | 240804 | 254178 28 | 56:29.04 | 2:04.55 | 254179 | 263533 29 | 58:33.59 | 2:03.00 | 263534 | 272758 30 | 60:36.59 | 2:17.19 | 272759 | 283052 31 | 62:54.03 | 1:30.74 | 283053 | 289876

Track 1

Filename L:\Ripped\Fullmetal Alchemist\Track01.wav

Pre-gap length 0:00:02.00

Peak level 100.0 % Track quality 100.0 % Test CRC 86F893CA Copy CRC 86F893CA Track not present in AccurateRip database Copy OK

Track 2

Filename L:\Ripped\Fullmetal Alchemist\Track02.wav

Peak level 100.0 % Track quality 100.0 % Test CRC 9AA785CF Copy CRC 9AA785CF Track not present in AccurateRip database Copy OK

Track 3

Filename L:\Ripped\Fullmetal Alchemist\Track03.wav

Peak level 70.7 % Track quality 99.8 % Test CRC F7483C27 Copy CRC F7483C27 Track not present in AccurateRip database Copy OK

Track 4

Filename L:\Ripped\Fullmetal Alchemist\Track04.wav

Peak level 99.9 % Track quality 100.0 % Test CRC A9380514 Copy CRC A9380514 Track not present in AccurateRip database Copy OK

Track 5

Filename L:\Ripped\Fullmetal Alchemist\Track05.wav

Peak level 100.0 % Track quality 100.0 % Test CRC 31A0E639 Copy CRC 31A0E639 Track not present in AccurateRip database Copy OK

Track 6

Filename L:\Ripped\Fullmetal Alchemist\Track06.wav

Peak level 100.0 % Track quality 99.8 % Test CRC 11C04BD2 Copy CRC 11C04BD2 Track not present in AccurateRip database Copy OK

Track 7

Filename L:\Ripped\Fullmetal Alchemist\Track07.wav

Pre-gap length 0:00:01.03

Peak level 41.5 % Track quality 100.0 % Test CRC F880ED7B Copy CRC F880ED7B Track not present in AccurateRip database Copy OK

Track 8

Filename L:\Ripped\Fullmetal Alchemist\Track08.wav

Peak level 90.3 % Track quality 100.0 % Test CRC A134B13C Copy CRC A134B13C Track not present in AccurateRip database Copy OK

Track 9

Filename L:\Ripped\Fullmetal Alchemist\Track09.wav

Peak level 88.1 % Track quality 99.8 % Test CRC 132EE1F8 Copy CRC 132EE1F8 Track not present in AccurateRip database Copy OK

Track 10

Filename L:\Ripped\Fullmetal Alchemist\Track10.wav

Peak level 100.0 % Track quality 100.0 % Test CRC B624308C Copy CRC B624308C Track not present in AccurateRip database Copy OK

Track 11

Filename L:\Ripped\Fullmetal Alchemist\Track11.wav

Peak level 57.3 % Track quality 100.0 % Test CRC 83EF2141 Copy CRC 83EF2141 Track not present in AccurateRip database Copy OK

Track 12

Filename L:\Ripped\Fullmetal Alchemist\Track12.wav

Peak level 86.5 % Track quality 100.0 % Test CRC C553CCCC Copy CRC C553CCCC Track not present in AccurateRip database Copy OK

Track 13

Filename L:\Ripped\Fullmetal Alchemist\Track13.wav

Peak level 74.0 % Track quality 100.0 % Test CRC 4827DF91 Copy CRC 4827DF91 Track not present in AccurateRip database Copy OK

Track 14

Filename L:\Ripped\Fullmetal Alchemist\Track14.wav

Pre-gap length 0:00:01.07

Peak level 62.1 % Track quality 100.0 % Test CRC E5C54B88 Copy CRC E5C54B88 Track not present in AccurateRip database Copy OK

Track 15

Filename L:\Ripped\Fullmetal Alchemist\Track15.wav

Peak level 54.7 % Track quality 100.0 % Test CRC B2FB6D7E Copy CRC B2FB6D7E Track not present in AccurateRip database Copy OK

Track 16

Filename L:\Ripped\Fullmetal Alchemist\Track16.wav

Pre-gap length 0:00:01.07

Peak level 61.5 % Track quality 100.0 % Test CRC 2CF52BAC Copy CRC 2CF52BAC Track not present in AccurateRip database Copy OK

Track 17

Filename L:\Ripped\Fullmetal Alchemist\Track17.wav

Peak level 87.9 % Track quality 100.0 % Test CRC 9BBA8D2D Copy CRC 9BBA8D2D Track not present in AccurateRip database Copy OK

Track 18

Filename L:\Ripped\Fullmetal Alchemist\Track18.wav

Peak level 25.0 % Track quality 100.0 % Test CRC AC346C90 Copy CRC AC346C90 Track not present in AccurateRip database Copy OK

Track 19

Filename L:\Ripped\Fullmetal Alchemist\Track19.wav

Peak level 100.0 % Track quality 100.0 % Test CRC 40750F64 Copy CRC 40750F64 Track not present in AccurateRip database Copy OK

Track 20

Filename L:\Ripped\Fullmetal Alchemist\Track20.wav

Peak level 89.0 % Track quality 100.0 % Test CRC 3532777D Copy CRC 3532777D Track not present in AccurateRip database Copy OK

Track 21

Filename L:\Ripped\Fullmetal Alchemist\Track21.wav

Peak level 96.3 % Track quality 100.0 % Test CRC D919E29C Copy CRC D919E29C Track not present in AccurateRip database Copy OK

Track 22

Filename L:\Ripped\Fullmetal Alchemist\Track22.wav

Peak level 72.7 % Track quality 100.0 % Test CRC 34B340D1 Copy CRC 34B340D1 Track not present in AccurateRip database Copy OK

Track 23

Filename L:\Ripped\Fullmetal Alchemist\Track23.wav

Pre-gap length 0:00:01.37

Peak level 55.6 % Track quality 100.0 % Test CRC 057AB344 Copy CRC 057AB344 Track not present in AccurateRip database Copy OK

Track 24

Filename L:\Ripped\Fullmetal Alchemist\Track24.wav

Peak level 100.0 % Track quality 100.0 % Test CRC 1ED2EBE9 Copy CRC 1ED2EBE9 Track not present in AccurateRip database Copy OK

Track 25

Filename L:\Ripped\Fullmetal Alchemist\Track25.wav

Peak level 94.3 % Track quality 100.0 % Test CRC 8C27CF0B Copy CRC 8C27CF0B Track not present in AccurateRip database Copy OK

Track 26

Filename L:\Ripped\Fullmetal Alchemist\Track26.wav

Peak level 58.2 % Track quality 100.0 % Test CRC 16CF912F Copy CRC 16CF912F Track not present in AccurateRip database Copy OK

Track 27

Filename L:\Ripped\Fullmetal Alchemist\Track27.wav

Peak level 92.4 % Track quality 99.9 % Test CRC 3E3BD3E9 Copy CRC 3E3BD3E9 Track not present in AccurateRip database Copy OK

Track 28

Filename L:\Ripped\Fullmetal Alchemist\Track28.wav

Peak level 45.9 % Track quality 100.0 % Test CRC 78B094A1 Copy CRC 78B094A1 Track not present in AccurateRip database Copy OK

Track 29

Filename L:\Ripped\Fullmetal Alchemist\Track29.wav

Peak level 67.6 % Track quality 100.0 % Test CRC 350D1DCA Copy CRC 350D1DCA Track not present in AccurateRip database Copy OK

Track 30

Filename L:\Ripped\Fullmetal Alchemist\Track30.wav

Peak level 100.0 % Track quality 100.0 % Test CRC 8E694AB1 Copy CRC 8E694AB1 Track not present in AccurateRip database Copy OK

Track 31

Filename L:\Ripped\Fullmetal Alchemist\Track31.wav

Pre-gap length 0:00:01.11

Peak level 67.5 % Track quality 100.0 % Test CRC 9D8A62E5 Copy CRC 9D8A62E5 Track not present in AccurateRip database Copy OK

None of the tracks are present in the AccurateRip database

No errors occurred

End of status report


Fullmetal Alchemist Brotherhood
Original Sountrack №2

Исполнитель: Akira Senju

Дата выпуска диска: 24 марта 2010

Продолжительность: 51 мин 39 сек
01. Golden Time Lover (TV size) (1:34)
02. Mount Briggs ~Overture~ (2:27)
03. Pride (1:55)
04. Envy Revealed (1:59)
05. The Plot Thickens (1:41)
06. Xing Symphony ~Overture~ (1:30)
07. Anticipation (1:26)
08. Nightmares (1:38)
09. Desolation (2:16)
10. The Fullmetal Alchemist ~Legato~ (2:26)
11. Nocturne of Amestris ~Duet~ (1:38)
12. Daylight in Amestris (1:26)
13. Nocturne of Amestris (1:51)
14. Tsunaida Te (TV size) (1:33)
15. T.B.C. (1:22)
16. Entr''acte (1:27)
17. Period (TV size) (1:33)
18. No Answer (1:23)
19. Crisis in the North (1:36)
20. The Land of Ishvala (1:46)
21. Lapis Philosophorum ~Piano Solo~ (1:37)
22. Mount Briggs ~Undulation~ (1:32)
23. What Lies Beneath (1:03)
24. Versus Homonculus (1:47)
25. Battle Scherzo (2:06)
26. Far East Suite ~Pizzicato~ (1:31)
27. Pastorale Rondo (1:22)
28. Stepping Along (1:34)
29. Shunkan Sentimental (TV size) (1:33)
30. To Be King (2:02)
31. Brotherhood ~Postlude~ (1:23)
Доп. информация: + SCANS

Exact Audio Copy V0.99 prebeta 5 from 4. May 2009

EAC extraction logfile from 29. March 2010, 14:02

Akira Senju / FULLMETAL ALCHEMIST Original Soundtrack 2

Used drive : PHILIPS DVDR1648P1 Adapter: 4 ID: 0

Read mode : SecureUtilize accurate stream : YesDefeat audio cache : YesMake use of C2 pointers : No

Read offset correction : 618Overread into Lead-In and Lead-Out : NoFill up missing offset samples with silence : YesDelete leading and trailing silent blocks : NoNull samples used in CRC calculations : YesUsed interface : Native Win32 interface for Win NT & 2000Gap handling : Appended to previous track

Used output format : Internal WAV RoutinesSample format : 44.100 Hz; 16 Bit; Stereo

TOC of the extracted CD

Track | Start | Length | Start sector | End sector --------------------------------------------------------- 1 | 0:00.00 | 1:34.02 | 0 | 7051 2 | 1:34.02 | 2:26.54 | 7052 | 18055 3 | 4:00.56 | 1:55.27 | 18056 | 26707 4 | 5:56.08 | 1:59.19 | 26708 | 35651 5 | 7:55.27 | 1:41.05 | 35652 | 43231 6 | 9:36.32 | 1:30.33 | 43232 | 50014 7 | 11:06.65 | 1:25.39 | 50015 | 56428 8 | 12:32.29 | 1:38.26 | 56429 | 63804 9 | 14:10.55 | 2:15.46 | 63805 | 73975 10 | 16:26.26 | 2:25.65 | 73976 | 84915 11 | 18:52.16 | 1:37.68 | 84916 | 92258 12 | 20:30.09 | 1:25.63 | 92259 | 98696 13 | 21:55.72 | 1:51.09 | 98697 | 107030 14 | 23:47.06 | 1:32.63 | 107031 | 113993 15 | 25:19.69 | 1:22.05 | 113994 | 120148 16 | 26:41.74 | 1:26.40 | 120149 | 126638 17 | 28:08.39 | 1:32.38 | 126639 | 133576 18 | 29:41.02 | 1:23.05 | 133577 | 139806 19 | 31:04.07 | 1:35.38 | 139807 | 146969 20 | 32:39.45 | 1:46.05 | 146970 | 154924 21 | 34:25.50 | 1:37.14 | 154925 | 162213 22 | 36:02.64 | 1:31.70 | 162214 | 169108 23 | 37:34.59 | 1:02.56 | 169109 | 173814 24 | 38:37.40 | 1:46.64 | 173815 | 181828 25 | 40:24.29 | 2:06.21 | 181829 | 191299 26 | 42:30.50 | 1:31.12 | 191300 | 198136 27 | 44:01.62 | 1:22.13 | 198137 | 204299 28 | 45:24.00 | 1:34.31 | 204300 | 211380 29 | 46:58.31 | 1:33.34 | 211381 | 218389 30 | 48:31.65 | 2:02.10 | 218390 | 227549 31 | 50:34.00 | 1:23.19 | 227550 | 233793

Track 1

Filename L:\Ripped\01. Golden Time Lover (TV size).wav

Pre-gap length 0:00:02.00

Peak level 67.9 % Track quality 100.0 % Test CRC 96D0283E Copy CRC 96D0283E Track not present in AccurateRip database Copy OK

Track 2

Filename L:\Ripped\02. Mount Briggs ~Overture~.wav

Pre-gap length 0:00:01.36

Peak level 89.0 % Track quality 100.0 % Test CRC 7546A896 Copy CRC 7546A896 Track not present in AccurateRip database Copy OK

Track 3

Filename L:\Ripped\03. Pride.wav

Peak level 72.9 % Track quality 100.0 % Test CRC 4B0C7428 Copy CRC 4B0C7428 Track not present in AccurateRip database Copy OK

Track 4

Filename L:\Ripped\04. Envy Revealed.wav

Peak level 86.9 % Track quality 100.0 % Test CRC 9D37136B Copy CRC 9D37136B Track not present in AccurateRip database Copy OK

Track 5

Filename L:\Ripped\05. The Plot Thickens.wav

Peak level 77.7 % Track quality 100.0 % Test CRC BFA0178B Copy CRC BFA0178B Track not present in AccurateRip database Copy OK

Track 6

Filename L:\Ripped\06. Xing Symphony ~Overture~.wav

Peak level 82.0 % Track quality 100.0 % Test CRC 6F2D8B53 Copy CRC 6F2D8B53 Track not present in AccurateRip database Copy OK

Track 7

Filename L:\Ripped\07. Anticipation.wav

Peak level 81.4 % Track quality 100.0 % Test CRC 2C889AD3 Copy CRC 2C889AD3 Track not present in AccurateRip database Copy OK

Track 8

Filename L:\Ripped\08. Nightmares.wav

Peak level 67.0 % Track quality 100.0 % Test CRC 39AE9180 Copy CRC 39AE9180 Track not present in AccurateRip database Copy OK

Track 9

Filename L:\Ripped\09. Desolation.wav

Peak level 74.8 % Track quality 100.0 % Test CRC 15E58A8A Copy CRC 15E58A8A Track not present in AccurateRip database Copy OK

Track 10

Filename L:\Ripped\10. The Fullmetal Alchemist ~Legato~.wav

Peak level 68.3 % Track quality 100.0 % Test CRC 984FE531 Copy CRC 984FE531 Track not present in AccurateRip database Copy OK

Track 11

Filename L:\Ripped\11. Nocturne of Amestris ~Duet~.wav

Pre-gap length 0:00:01.09

Peak level 68.9 % Track quality 100.0 % Test CRC B198A76C Copy CRC B198A76C Track not present in AccurateRip database Copy OK

Track 12

Filename L:\Ripped\12. Daylight in Amestris.wav

Peak level 51.0 % Track quality 100.0 % Test CRC 72FC9439 Copy CRC 72FC9439 Track not present in AccurateRip database Copy OK

Track 13

Filename L:\Ripped\13. Nocturne of Amestris.wav

Peak level 59.3 % Track quality 100.0 % Test CRC 6455061E Copy CRC 6455061E Track not present in AccurateRip database Copy OK

Track 14

Filename L:\Ripped\14. Tsunaida Te (TV size).wav

Peak level 54.2 % Track quality 100.0 % Test CRC 2804A37B Copy CRC 2804A37B Track not present in AccurateRip database Copy OK

Track 15

Filename L:\Ripped\15. T.B.C..wav

Pre-gap length 0:00:02.36

Peak level 71.5 % Track quality 100.0 % Test CRC 93E65CB9 Copy CRC 93E65CB9 Track not present in AccurateRip database Copy OK

Track 16

Filename L:\Ripped\16. Entr''acte.wav

Pre-gap length 0:00:02.21

Peak level 58.8 % Track quality 100.0 % Test CRC BA60A3F2 Copy CRC BA60A3F2 Track not present in AccurateRip database Copy OK

Track 17

Filename L:\Ripped\17. Period (TV size).wav

Pre-gap length 0:00:01.24

Peak level 58.1 % Track quality 100.0 % Test CRC E501D994 Copy CRC E501D994 Track not present in AccurateRip database Copy OK

Track 18

Filename L:\Ripped\18. No Answer.wav

Pre-gap length 0:00:01.65

Peak level 69.8 % Track quality 100.0 % Test CRC B0664FB4 Copy CRC B0664FB4 Track not present in AccurateRip database Copy OK

Track 19

Filename L:\Ripped\19. Crisis in the North.wav

Peak level 83.9 % Track quality 100.0 % Test CRC 56565284 Copy CRC 56565284 Track not present in AccurateRip database Copy OK

Track 20

Filename L:\Ripped\20. The Land of Ishvala.wav

Peak level 78.3 % Track quality 100.0 % Test CRC DF70C5F3 Copy CRC DF70C5F3 Track not present in AccurateRip database Copy OK

Track 21

Filename L:\Ripped\21. Lapis Philosophorum ~Piano Solo~.wav

Peak level 63.9 % Track quality 100.0 % Test CRC A8E7D67D Copy CRC A8E7D67D Track not present in AccurateRip database Copy OK

Track 22

Filename L:\Ripped\22. Mount Briggs ~Undulation~.wav

Peak level 49.6 % Track quality 100.0 % Test CRC C96EFB4F Copy CRC C96EFB4F Track not present in AccurateRip database Copy OK

Track 23

Filename L:\Ripped\23. What Lies Beneath.wav

Peak level 65.9 % Track quality 99.8 % Test CRC 52406D6A Copy CRC 52406D6A Track not present in AccurateRip database Copy OK

Track 24

Filename L:\Ripped\24. Versus Homonculus.wav

Peak level 98.7 % Track quality 100.0 % Test CRC E78C724F Copy CRC E78C724F Track not present in AccurateRip database Copy OK

Track 25

Filename L:\Ripped\25. Battle Scherzo.wav

Peak level 98.7 % Track quality 100.0 % Test CRC 684473C0 Copy CRC 684473C0 Track not present in AccurateRip database Copy OK

Track 26

Filename L:\Ripped\26. Far East Suite ~Pizzicato~.wav

Peak level 46.3 % Track quality 100.0 % Test CRC 10304EF6 Copy CRC 10304EF6 Track not present in AccurateRip database Copy OK

Track 27

Filename L:\Ripped\27. Pastorale Rondo.wav

Pre-gap length 0:00:01.16

Peak level 72.1 % Track quality 100.0 % Test CRC 9B155A02 Copy CRC 9B155A02 Track not present in AccurateRip database Copy OK

Track 28

Filename L:\Ripped\28. Stepping Along.wav

Peak level 72.6 % Track quality 100.0 % Test CRC 41404FDE Copy CRC 41404FDE Track not present in AccurateRip database Copy OK

Track 29

Filename L:\Ripped\29. Shunkan Sentimental (TV size).wav

Pre-gap length 0:00:01.31

Peak level 61.5 % Track quality 100.0 % Test CRC CB35F5A8 Copy CRC CB35F5A8 Track not present in AccurateRip database Copy OK

Track 30

Filename L:\Ripped\30. To Be King.wav

Pre-gap length 0:00:01.49

Peak level 83.0 % Track quality 100.0 % Test CRC DBB399F5 Copy CRC DBB399F5 Track not present in AccurateRip database Copy OK

Track 31

Filename L:\Ripped\31. Brotherhood ~Postlude~.wav

Peak level 30.5 % Track quality 100.0 % Test CRC B8CE20B4 Copy CRC B8CE20B4 Track not present in AccurateRip database Copy OK

None of the tracks are present in the AccurateRip database

No errors occurred

End of status report


Fullmetal Alchemist Brotherhood
Theme of Alphonse Elric

Исполнитель: Kugimiya Rie & Paku Romi & THE ALCHEMISTS

Дата выпуска диска: 14 октября 2009

Продолжительность: 16 мин 16 сек

Трэклист:

01. Kaze ni Dakarete (4:02)
02. Restore steppin'' (4:08)
03. Kaze ni Dakarete instrumental (4:02)
04. Restore steppin'' instrumental (4:05)


Доп. информация: + SCANS

AUDIOCHECKER v2.0 beta (build 457) - by Dester - [email protected]~~~~~~~~~~~~~~~~~~~~~~~~~~~~~~~~~~

Started at: понедельник, 19. 10. 2009. - 22:04.194 files found

1 -===- D:\Music\OST\Fullmetal Alchemist - Brotherhood\Theme of Alphonse Elric by THE ALCHEMISTS (FLAC)\01 Kaze ni Dakarete.flac Extracted successfully Conclusion: this track is CDDA with probability 100% Tempfile successfully deleted.

2 -===- D:\Music\OST\Fullmetal Alchemist - Brotherhood\Theme of Alphonse Elric by THE ALCHEMISTS (FLAC)\02 Restore steppin''.flac Extracted successfully Conclusion: this track is CDDA with probability 100% Tempfile successfully deleted.

3 -===- D:\Music\OST\Fullmetal Alchemist - Brotherhood\Theme of Alphonse Elric by THE ALCHEMISTS (FLAC)\03 Kaze ni Dakarete instrumental.flac Extracted successfully Conclusion: this track is CDDA with probability 100% Tempfile successfully deleted.

4 -===- D:\Music\OST\Fullmetal Alchemist - Brotherhood\Theme of Alphonse Elric by THE ALCHEMISTS (FLAC)\04 Restore steppin'' instrumental.flac Extracted successfully Conclusion: this track is CDDA with probability 100% Tempfile successfully deleted.

Finished at: понедельник, 19. 10. 2009. - 22:05.45 (operation time: 0:01.26)


Трекер:  [ 16-Окт-2010 17:37 ]

  

Скачать .torrent

Размер .torrent файла 31 KB


Размер: 2.02 GB
Хэш (hash) релиза: e9a0a2cda7235346449bcbdd31c9690c1eb598e4

Еще никто не оставлял запись к записи скачать торрент Стальной алхимик: Братство Fullmetal Alchemist: Brotherhood . Будь первым!

!Обратная связь