Остров ненужных людей | Educação | Mein.Freund.die.Giraffe.German.2017.AC3.BDRiP.x264-XF

Скачать через торрент музыку Keiko Matsui - Hidamari No Ki - 2000, FLAC бесплатно без регистрации torrent

Статистика раздачи
Размер:  244 MB   |    Зарегистрирован:  7 лет 9 месяцев   |    .torrent скачан:  133 раза   |   
Раздают:  1  
   
загрузка...
 
Автор Сообщение

bot

avatar bot


Keiko Matsui - Hidamari No Ki

Жанр: Score, Smooth Jazz
Год выпуска диска: 2000
Производитель диска: Япония
Аудио кодек: FLAC
Тип рипа: image+.cue
Битрейт аудио: lossless
Продолжительность: 48:34
Трэклист:
01. Hidamari No Ki ~Akatsuki~ (4:16)
02. Umi E. (5:08)
03. Seimei No Ki (3:48)
04. Hashire (4:30)
05. Umi E ~Piano Version~ (4:00)
06. Seimei No Ki ~Piano Version~ (3:18)
07. Hidamari No Ki ~Piano Version~ (4:03)
08. Yasashii Kaze (2:39)
09. Anun (0:58)
10. Omowarete (1:02)
11. Futari (2:25)
12. Fuan (1:07)
13. Yabu No Naka (1:28)
14. Youkou (0:55)
15. Jidai No Kaze (2:30)
16. Kagi (0:48)
17. Tsukikage (0:49)
18. Hidamari No Ki ~Manazashi~ (4:19)

Доп. информация: Рип с собственного диска. OST исторического аниме, выходившего с весны по осень 2000-го года.
[pre]
Exact Audio Copy V0.99 prebeta 5 from 4. May 2009

EAC extraction logfile from 13. April 2010, 8:02

Keiko Matsui / Hidamari No Ki OST

Used drive : _NEC DVD_RW ND-2510A Adapter: 0 ID: 0

Read mode : SecureUtilize accurate stream : YesDefeat audio cache : YesMake use of C2 pointers : No

Read offset correction : 48Overread into Lead-In and Lead-Out : NoFill up missing offset samples with silence : YesDelete leading and trailing silent blocks : NoNull samples used in CRC calculations : YesUsed interface : Native Win32 interface for Win NT & 2000

Used output format : User Defined EncoderSelected bitrate : 1024 kBit/sQuality : HighAdd ID3 tag : YesCommand line compressor : C:\Program Files (x86)\Exact Audio Copy\Flac\flac.exeAdditional command line options : -8 -V %s

TOC of the extracted CD

Track | Start | Length | Start sector | End sector --------------------------------------------------------- 1 | 0:00.00 | 4:17.25 | 0 | 19299 2 | 4:17.25 | 5:09.25 | 19300 | 42499 3 | 9:26.50 | 3:50.00 | 42500 | 59749 4 | 13:16.50 | 4:32.32 | 59750 | 80181 5 | 17:49.07 | 4:01.73 | 80182 | 98329 6 | 21:51.05 | 3:20.05 | 98330 | 113334 7 | 25:11.10 | 4:04.40 | 113335 | 131674 8 | 29:15.50 | 2:40.67 | 131675 | 143741 9 | 31:56.42 | 0:59.70 | 143742 | 148236 10 | 32:56.37 | 1:03.25 | 148237 | 152986 11 | 33:59.62 | 2:27.05 | 152987 | 164016 12 | 36:26.67 | 1:08.33 | 164017 | 169149 13 | 37:35.25 | 1:29.32 | 169150 | 175856 14 | 39:04.57 | 0:56.38 | 175857 | 180094 15 | 40:01.20 | 2:31.65 | 180095 | 191484 16 | 42:33.10 | 0:50.07 | 191485 | 195241 17 | 43:23.17 | 0:52.20 | 195242 | 199161 18 | 44:15.37 | 4:19.23 | 199162 | 218609

Range status and errors

Selected range

Filename F:\Music\Keiko Matsui\2000 - Hidamari no Ki OST\Keiko Matsui - Hidamari No Ki OST.wav

Peak level 99.6 % Range quality 100.0 % Copy CRC 434C827E Copy OK

No errors occurred

AccurateRip summary

Track 1 accurately ripped (confidence 1) [FEA59452]Track 2 accurately ripped (confidence 1) [270E85A9]Track 3 accurately ripped (confidence 1) [693F6AF0]Track 4 accurately ripped (confidence 1) [89DCC4B5]Track 5 accurately ripped (confidence 1) [AD025553]Track 6 accurately ripped (confidence 1) [BC963A13]Track 7 accurately ripped (confidence 1) [5CC3C092]Track 8 accurately ripped (confidence 1) [6B62ED1C]Track 9 accurately ripped (confidence 1) [303B9693]Track 10 accurately ripped (confidence 1) [6817CAF2]Track 11 accurately ripped (confidence 1) [0F3D6B88]Track 12 accurately ripped (confidence 1) [A4AC8C03]Track 13 accurately ripped (confidence 1) [E7A9169B]Track 14 accurately ripped (confidence 1) [91B53D48]Track 15 accurately ripped (confidence 1) [CE6AAE58]Track 16 accurately ripped (confidence 1) [99A38838]Track 17 accurately ripped (confidence 1) [53EDE7BB]Track 18 accurately ripped (confidence 1) [FC430FEA]

All tracks accurately ripped

End of status report
[/pre]


Трекер:  [ 16-Окт-2010 17:34 ]

  

Скачать .torrent

Размер .torrent файла 20 KB


Размер: 244 MB
Хэш (hash) релиза: 13e48121c2d268acaa1b898b245cd39c3e9bab51

Еще никто не оставлял запись к записи скачать торрент Keiko Matsui - Hidamari No Ki - 2000, FLAC . Будь первым!

!Обратная связь