Applications | Home Of Warez | Announcements News

Скачать через торрент Мунто Мир, отраженный в глазах девушки, смотрящей на небо Фильм бесплатно в хорошем качестве torrent

Скачивайте на UnionPeer.org фильмы через торрент без регистрации. Новинки кино в хорошем качестве через торрент. На UnionPeer.org можно скачать через торрент фильмы 2014 и 2015 годов. Самые новые фильмы.

Скачать торрент Мунто Мир, отраженный в глазах девушки, смотрящей на небо бесплатно через .torrent фильм мультфильм сериал

Статистика раздачи
Размер:  775 MB   |    Зарегистрирован:  7 лет 7 месяцев   |    .torrent скачан:  100 раз   |   
Раздают:  1  
   
загрузка...
 
Автор Сообщение

Chonk

avatar Chonk




Мир, отраженный в глазах девушки, смотрящей на небо
Оригинальное название: 空を見上げる少女の瞳に映る世界
Английское название: Munto
Год выпуска: 2009г.
Страна: Япония
Жанр: фэнтези, романтика, драма
Продолжительность: ТВ (9 эп.), 25 мин.
Режиссёр: Кигами Ёсидзи
Озвучка: одноголосый JEPT
Студия:

Описание:Давным-давно ужасная война расколола Землю и Небеса и навеки разделила два мира. Жители Земли с их короткой жизнью стали вспоминать Небеса лишь в мифах и легендах, а бессмертные небожители попросту не обращали внимания на Нижний мир – ведь там не было Акуто, магической энергии, дающей им силу и долголетие. И тут случилась беда – Акуто стала стремительно истощаться, а вспыхнувшие войны только ускорили кризис. Пока эльфоподобные жители Верхнего мира дрались за остатки магической силы, Мунто, самый могучий из Небесных владык, узнал от провидицы Руэри, что ключ к спасению обоих миров нужно искать на Земле...

13-летняя Юмэми Хидака любила дождливые дни – ведь тогда она видела небо так же, как остальные люди, без величественных островов, плавающих в голубой вышине. Но последние время видения стали тревожными и пугающими, с огромными скалами и каменными колоннами, рушащимися с небес. Юмэми поняла, отчего родную Японию стали терзать цунами, землетрясения и иные катаклизмы, но этими мыслями боялась делиться даже с лучшими подругами Итико и Судзумэ, до тех пор, когда в огненном сиянии перед ней не появился незнакомец в красном…

© Hollow,
World Art

Качество: DVDRip
Формат: MP4
Видео кодек: H.264
Аудио кодек: AAC
Видео: MPEG4 Video (H264) 480x272 23.98fp [352 Kbps]
Аудио: AAC 48000Hz stereo [129 Kbps]

01. Knowing
02. Fleeing
03. Confronting
04. Yearning
05. Confusing
06. Believing
07. Forgiving
08. Unyielding
09. Loving

Format : MPEG-4
Format profile : Base Media
Codec ID : isom
File size : 86.0 MiB
Duration : 24mn 49s
Overall bit rate : 484 Kbps
Encoded date : UTC 2010-09-12 10:00:34
Tagged date : UTC 2010-09-12 10:00:34

Video
ID : 1
Format : AVC
Format/Info : Advanced Video Codec
Format profile : [email protected]
Format settings, CABAC : Yes
Format settings, ReFrames : 3 frames
Format settings, GOP : M=2, N=24
Codec ID : avc1
Codec ID/Info : Advanced Video Coding
Duration : 24mn 49s
Bit rate mode : Variable
Bit rate : 352 Kbps
Maximum bit rate : 1 568 Kbps
Width : 480 pixels
Height : 272 pixels
Display aspect ratio : 16:9
Frame rate mode : Constant
Frame rate : 23.976 fps
Color space : YUV
Chroma subsampling : 4:2:0
Bit depth : 8 bits
Scan type : Progressive
Bits/(Pixel*Frame) : 0.112
Stream size : 62.5 MiB (73%)
Writing library : x264 core 56 svn-667M
Encoding settings : cabac=1 / ref=2 / deblock=1:0:0 / analyse=0x1:0x131 / me=umh / subme=6 / brdo=1 / mixed_ref=1 / me_range=16 / chroma_me=1 / trellis=1 / 8x8dct=0 / cqm=0 / deadzone=21,11 / chroma_qp_offset=0 / threads=2 / nr=0 / decimate=1 / mbaff=0 / bframes=3 / b_pyramid=0 / b_adapt=1 / b_bias=0 / direct=3 / wpredb=1 / bime=1 / keyint=250 / keyint_min=25 / scenecut=40(pre) / rc=2pass / bitrate=352 / ratetol=1.0 / rceq='blurCplx^(1-qComp)' / qcomp=0.60 / qpmin=10 / qpmax=51 / qpstep=4 / cplxblur=20.0 / qblur=0.5 / ip_ratio=1.40 / pb_ratio=1.30
Encoded date : UTC 2010-09-12 10:00:34
Tagged date : UTC 2010-09-12 10:00:38

Audio
ID : 2
Format : AAC
Format/Info : Advanced Audio Codec
Format version : Version 4
Format profile : LC
Format settings, SBR : No
Codec ID : 40
Duration : 24mn 49s
Bit rate mode : Variable
Bit rate : 129 Kbps
Maximum bit rate : 159 Kbps
Channel(s) : 2 channels
Channel positions : Front: L R
Sampling rate : 48.0 KHz
Stream size : 22.9 MiB (27%)
Encoded date : UTC 2010-09-12 10:00:37
Tagged date : UTC 2010-09-12 10:00:38




Трекер:  [ 12-Янв-2011 20:34 ]

  

Скачать .torrent

Размер .torrent файла 3 KB


Размер: 775 MB
Хэш (hash) релиза: 14daa4c39e11137a7d8f0c327392a2cb14a46226
Подписка на обновления:

bot

Топик был перенесен в форум PSP | Аниме

Перенес Chonk

Хотите добавить комментарий к записи скачать торрент Мунто Мир, отраженный в глазах девушки, смотрящей на небо

!Обратная связь