Reality-TV | Recuperar Contraseña | Плейбой

Скачать через торрент [ANIME] Легенда об Ангеле Angel Densetsu Фильм бесплатно в хорошем качестве torrent

Скачивайте на UnionPeer.org фильмы через торрент без регистрации. Новинки кино в хорошем качестве через торрент. На UnionPeer.org можно скачать через торрент фильмы 2014 и 2015 годов. Самые новые фильмы.

Скачать торрент [ANIME] Легенда об Ангеле Angel Densetsu бесплатно через .torrent фильм мультфильм сериал

Статистика раздачи
Размер:  228 MB   |    Зарегистрирован:  5 лет 1 месяц   |    .torrent скачан:  32 раза   |   
Раздают:  1  
   
загрузка...
 
Автор Сообщение

Galfimbul

avatar Galfimbul


Angel Densetsu
Angel Legend
Легенда об ангеле
Оригинальное Название: Angel Densetsu / Angel Legend
Год Выпуска: 1996
Cтрана: Япония
Жанр: Школа, комедия, драма
Продолжительность: 2 эп. по 24 мин
Перевод: Дух Подмышки Мамонта & AlexMalkavian
Озвучка: Любительская (двухголосая закадровая) Кошка Бестия & codevip сэмпл
Режиссер: Кайдзава Юкио
Студия:
Описание:
Китано Сейтиро - добрый и отзывчивый парень, который больше всего на свете хочет мира на Земле и счастья всем людям. Вот только с внешностью ему не повезло, потому что выглядит наш герой как маньяк-убийца из фильма ужасов - одной робкой улыбкой Китано способен довести человека до инфаркта. Его поистине детская наивность вкупе с его лицом вызывают сложную череду событий, в ходе которой Китано побеждает всех хулиганов в своей школе, становится их лидером, вызывает на войну хулиганов соседней школы, побеждает их, доводит до увольнения несколько учителей... даже не догадываясь об этом... Это история о добре в маске беспощадного зла, это легенда об ангеле, держащем в страхе целый город...
Качество: DVDRip
Формат: MP4
Видео кодек: H.264
Аудио кодек: AAC
Видео: MPEG4 Video (H264), 368х272, 23.976 fps, 480 Kbps
Аудио: AAC, 48 KHz, 2 ch, 192Kbps
Снято по манге: Angel Densetsu
Автор оригинала: Яги Норихиро
Автор сценария: Сакай Наоюки
Откодировано с этой раздачи: http://unionpeer.org/forum/viewtopic.php?t=4460311
ОбщееПолное имя : D:\9 UPLOAD\[ANIME4PSP] Angel Densetsu_rus\Angel Densetsu.mp4Формат : MPEG-4Профиль формата : Base MediaИдентификатор кодека : isomРазмер файла : 228 МбайтПродолжительность : 47 м.Режим общего битрейта : ПеременныйОбщий поток : 677 Кбит/секДата кодирования : UTC 2013-06-12 14:28:57Дата пометки : UTC 2013-06-12 14:28:57

ВидеоИдентификатор : 1Формат : AVCФормат/Информация : Advanced Video CodecПрофиль формата : [email protected]Параметр CABAC формата : ДаПараметр ReFrames формата : 3 кадраИдентификатор кодека : avc1Идентификатор кодека/Информация : Advanced Video CodingПродолжительность : 47 м.Битрейт : 480 Кбит/секМаксимальный битрейт : 2292 Кбит/секШирина : 368 пикселейВысота : 272 пикселяСоотношение сторон : 4:3Режим частоты кадров : ПостоянныйЧастота кадров : 23,976 кадра/секЦветовое пространство : YUVСубдискретизация насыщенности : 4:2:0Битовая глубина : 8 битТип развёртки : ПрогрессивнаяБит/(Пиксели*Кадры) : 0.200Размер потока : 162 Мбайт (71%)Библиотека кодирования : x264 core 55 svn-656MНастройки программы : cabac=1 / ref=2 / deblock=1:0:0 / analyse=0x1:0x131 / me=umh / subme=6 /brdo=1 / mixed_ref=1 / me_range=16 / chroma_me=1 / trellis=1 / 8x8dct=0 / cqm=0 /deadzone=21,11 / chroma_qp_offset=0 / threads=2 / nr=0 / decimate=1 / mbaff=0 /bframes=3 / b_pyramid=0 / b_adapt=1 / b_bias=0 / direct=3 / wpredb=1 / bime=1 / keyint=250 / keyint_min=25 / scenecut=40(pre) / rc=2pass / bitrate=480 / ratetol=1.0 / rceq=''''blurCplx^(1-qComp)'''' / qcomp=0.60 / qpmin=10 / qpmax=51 / qpstep=4 / cplxblur=20.0 / qblur=0.5 / ip_ratio=1.40 / pb_ratio=1.30Дата кодирования : UTC 2013-06-12 14:28:57Дата пометки : UTC 2013-06-12 14:29:07

АудиоИдентификатор : 2Формат : AACФормат/Информация : Advanced Audio CodecПрофиль формата : LCИдентификатор кодека : 40Продолжительность : 47 м.Вид битрейта : ПеременныйБитрейт : 192 Кбит/секМаксимальный битрейт : 229 Кбит/секКаналы : 2 каналаРасположение каналов : Front: L RЧастота : 48,0 КГцМетод сжатия : С потерямиРазмер потока : 65,3 Мбайт (29%)Дата кодирования : UTC 2013-06-12 14:29:05Дата пометки : UTC 2013-06-12 14:29:07


Трекер:  [ 15-Июн-2013 12:10 ]

  

Скачать .torrent

Размер .torrent файла 18 KB


Размер: 228 MB
Хэш (hash) релиза: 8850fe5e5a2d1a63ac289a766343f3850d5bcd95
Подписка на обновления:

bot

Топик был перенесен из форума PSP | Аниме в форум PSP | Аниме

Galfimbul

Хотите добавить комментарий к записи скачать торрент [ANIME] Легенда об Ангеле Angel Densetsu

!Обратная связь