Eps8 Plebs - Season 3 (2016) | Chapter 142 | Killing Salazar

Скачать через торрент [VIDEO] Библиотекарь. Трилогия The Librarian. Trilogy бесплатно русская версия torrent активатор

Статистика раздачи
Размер:  2.92 GB   |    Зарегистрирован:  5 лет 1 месяц   |    .torrent скачан:  113 раз   |   
Раздают:  1  
   
загрузка...
 
Автор Сообщение

Galfimbul

avatar Galfimbul


Библиотекарь. Трилогия
The Librarian. Trilogy
Год выпуска: 2004, 2006, 2008
Страна: США
Жанр: фэнтези, боевик, приключения
Продолжительность: 1:30:14, 1:32:01, 1:30:10
Режиссер: Питер Уинтер / Peter Winther, Джонатан Фрейкс / Jonathan Frakes
Библиотекарь: В поисках копья судьбы
The Librarian: Quest for the Spear

Год выпуска: 2004
Страна: США
Жанр: Фэнтези, приключения, комедия
Продолжительность: 1:30:14
Перевод: Профессиональный (многоголосый, закадровый) "СОЮЗ Видео"
Cубтитры: Нет
Режиссер: Питер Уинтер / Peter Winther
В ролях: Ноа Уайли, Соня Уолгер, Боб Ньюхарт, Кайл МакЛоклен, Келли Ху, Джейн Куртин, Дэвид Дайан Фишер, Олимпия Дукакис, Лиза Бреннер, Марио Иван Мартинес
Описание: Из тайных хранилищ Нью-Йоркской Публичной библиотеки похищен магический артефакт — фрагмент Копья Судьбы. Библиотекарь Флинн Карсен должен вернуть его любой ценой и заодно найти оставшиеся два фрагмента прежде, чем ими завладеют злодеи.

Качество: HDRip (Рип с BDRip 720p)
Формат: MP4
Видео кодек: XviD
Аудио кодек: AAC
Видео: 800X448, 25 fps, 1400 Kbps
Аудио: 128 Kbps, 44.1 KHz, 2 ch
Общее
Полное имя : D:\ СПАМ
Формат : MPEG-4
Профиль формата : Base Media / Version 2
Идентификатор кодека : mp42
Размер файла : 988 Мбайт
Продолжительность : 1 ч. 30 м.
Режим общего битрейта : Переменный
Общий поток : 1530 Кбит/сек
Дата кодирования : UTC 2013-05-14 17:21:53
Дата пометки : UTC 2013-05-14 17:21:53

Видео
Идентификатор : 201
Формат : MPEG-4 Visual
Профиль формата : Advanced [email protected]
Параметр BVOP формата : Нет
Параметр QPel формата : Нет
Параметр GMC формата : Без точки перехода
Параметр матрицы формата : Default (H.263)
Идентификатор кодека : 20
Продолжительность : 1 ч. 30 м.
Вид битрейта : Переменный
Битрейт : 1400 Кбит/сек
Максимальный битрейт : 9614 Кбит/сек
Ширина : 800 пикселей
Высота : 448 пикселей
Соотношение сторон : 16:9
Режим частоты кадров : Переменный
Частота кадров : 24,913 кадров/сек
Частота кадров в оригинале : 25,000 кадров/сек
Минимальная частота кадров : 0,391 кадр/сек
Максимальная частота кадров : 25,000 кадров/сек
Цветовое пространство : YUV
Субдискретизация насыщенности : 4:2:0
Битовая глубина : 8 бит
Тип развёртки : Прогрессивная
Метод сжатия : С потерями
Бит/(Пиксели*Кадры) : 0.157
Размер потока : 903 Мбайт (91%)
Библиотека кодирования : XviD 1.2.1 (UTC 2008-12-04)
Дата кодирования : UTC 2013-05-14 17:21:53
Дата пометки : UTC 2013-05-14 17:22:25

Аудио
Идентификатор : 101
Формат : AAC
Формат/Информация : Advanced Audio Codec
Профиль формата : LC
Идентификатор кодека : 40
Продолжительность : 1 ч. 30 м.
Вид битрейта : Переменный
Битрейт : 128 Кбит/сек
Максимальный битрейт : 161 Кбит/сек
Каналы : 2 канала
Расположение каналов : Front: L R
Частота : 48,0 КГц
Метод сжатия : С потерями
Размер потока : 82,6 Мбайт (8%)
Дата кодирования : UTC 2013-05-14 17:22:20
Дата пометки : UTC 2013-05-14 17:22:25
Библиотекарь 2: Возвращение в Копи Царя Соломона
The Librarian: Return to King Solomon''s Mines

Год выпуска: 2006
Страна: США
Жанр: фэнтези, боевик, приключения
Продолжительность: 1:32:01
Перевод: Профессиональный (многоголосый, закадровый) "СОЮЗ Видео"
Cубтитры: Нет
Режиссер: Джонатан Фрейкс / Jonathan Frakes
В ролях: Ноа Уайли, Габриель Анвар, Боб Ньюхарт, Джейн Куртин, Олимпия Дукакис, Эрик Авари, Хаким Кае-Казим, Роберт Фоксуорт, Занн МаКларнон, Лиза Бреннер
Описание: Флин Карсен, интеллигентный юноша, сотрудник Нью Йоркской библиотеки. Но в его душе всегда жила страсть к приключениям, тайнам и всему тому, чем грезит любой мальчишка. Однажды, ему на глаза попадается интереснейший труд о легендарных Копях Царя Соломона. Флин решает найти мифические сокровища, променяв затхлый воздух помещения и книжных клопов на дух романтики и авантюризма…

Качество: HDRip (Рип с BDRip 720p)
Формат: MP4
Видео кодек: XviD
Аудио кодек: AAC
Видео: 800х448, 23.976 fps, 1401 Kbps
Аудио: 128 Kbps, 44.1 KHz, 2 ch
Общее
Полное имя : [VIDEO]Bibliotekar.2.Vozvrashenie.v.kopi.carya.solomona.HDrip.800x(semen_52-TNC).mp4
Формат : MPEG-4
Профиль формата : Base Media / Version 2
Идентификатор кодека : mp42
Размер файла : 1009 Мбайт
Продолжительность : 1 ч. 32 м.
Режим общего битрейта : Переменный
Общий поток : 1534 Кбит/сек
Название фильма : [VIDEO]Bibliotekar 2 Vozvrashenie v kopi carya solomona HDrip 800x(semen_52-TNC)
Дата кодирования : UTC 2013-05-14 20:55:31
Дата пометки : UTC 2013-05-15 16:27:25
Примечание : Rip by semen_52-TNC
hdvd : 0
stik : 9

Видео
Идентификатор : 201
Формат : MPEG-4 Visual
Профиль формата : Advanced [email protected]
Параметр BVOP формата : Нет
Параметр QPel формата : Нет
Параметр GMC формата : Без точки перехода
Параметр матрицы формата : Default (H.263)
Идентификатор кодека : 20
Продолжительность : 1 ч. 32 м.
Вид битрейта : Переменный
Битрейт : 1401 Кбит/сек
Максимальный битрейт : 1367 Мбит/сек
Ширина : 800 пикселей
Высота : 448 пикселей
Соотношение сторон : 16:9
Режим частоты кадров : Переменный
Частота кадров : 23,836 кадра/сек
Частота кадров в оригинале : 23,976 кадра/сек
Минимальная частота кадров : 0,888 кадр/сек
Максимальная частота кадров : 23,976 кадра/сек
Цветовое пространство : YUV
Субдискретизация насыщенности : 4:2:0
Битовая глубина : 8 бит
Тип развёртки : Прогрессивная
Метод сжатия : С потерями
Бит/(Пиксели*Кадры) : 0.164
Размер потока : 922 Мбайт (91%)
Библиотека кодирования : XviD 1.2.1 (UTC 2008-12-04)
Дата кодирования : UTC 2013-05-14 20:55:31
Дата пометки : UTC 2013-05-14 20:56:02

Аудио
Идентификатор : 101
Формат : AAC
Формат/Информация : Advanced Audio Codec
Профиль формата : LC
Идентификатор кодека : 40
Продолжительность : 1 ч. 32 м.
Вид битрейта : Переменный
Битрейт : 128 Кбит/сек
Максимальный битрейт : 165 Кбит/сек
Каналы : 2 канала
Расположение каналов : Front: L R
Частота : 48,0 КГц
Метод сжатия : С потерями
Размер потока : 84,2 Мбайт (8%)
Дата кодирования : UTC 2013-05-14 20:56:00
Дата пометки : UTC 2013-05-14 20:56:02
Библиотекарь 3: Проклятие Иудовой чаши
The Librarian: The Curse of the Judas Chalice

Год выпуска: 2008
Страна: США
Жанр: Фэнтези, боевик, приключения
Продолжительность: 1:30:10
Перевод: Профессиональный (многоголосый, закадровый) "СОЮЗ Видео"
Cубтитры: Нет
Режиссер: Джонатан Фрейкс / Jonathan Frakes
В ролях: Ноа Уайли, Брюс Дэвисон, Стана Катик, Боб Ньюхарт, Джейн Куртин, Дэвид Борн, Джейсон Дуглас, Элизабет Бурвант, Джо Кнезевич
Описание: Третья часть захватывающих приключений Флина Карсена, в которой Флину вновь предстоит спасти мир, но уже от угрожающего всеобщему спокойствию воскрешения Графа Дракулы. Находясь в отпуске, Флин знакомится с умопомрачительной красоткой Симоной, которая совершенно неожиданно для Флина узнает в нем Библиотекаря и обращается к нему за помощью. Вместе они пытаются опередить русского злодея в поисках Чаши Иуды, которая одна способна воскресить к жизни великого вампира.

Качество: HDRip (Рип с BDRip 720p)
Формат: MP4
Видео кодек: XviD
Аудио кодек: AAC
Видео: 800x448, 23.976 fps, 1400 Kbps
Аудио: 128 Kbps, 44.1 KHz, 2 ch
Общее
Полное имя : [VIDEO]Bibliotekar.3.Prokljatie.Iudovoj.chashi.2008.HDrip.800x(semen_52-TNC).mp4
Формат : MPEG-4
Профиль формата : Base Media / Version 2
Идентификатор кодека : mp42
Размер файла : 988 Мбайт
Продолжительность : 1 ч. 30 м.
Режим общего битрейта : Переменный
Общий поток : 1533 Кбит/сек
Название фильма : [VIDEO]Bibliotekar 3 Prokljatie Iudovoj chashi 2008 HDrip 800x(semen_52-TNC)
Дата кодирования : UTC 2013-05-15 00:10:39
Дата пометки : UTC 2013-05-15 16:27:36
Примечание : Rip by semen_52-TNC
hdvd : 0
stik : 9

Видео
Идентификатор : 201
Формат : MPEG-4 Visual
Профиль формата : Advanced [email protected]
Параметр BVOP формата : Нет
Параметр QPel формата : Нет
Параметр GMC формата : Без точки перехода
Параметр матрицы формата : Default (H.263)
Идентификатор кодека : 20
Продолжительность : 1 ч. 30 м.
Вид битрейта : Переменный
Битрейт : 1400 Кбит/сек
Максимальный битрейт : 586 Мбит/сек
Ширина : 800 пикселей
Высота : 448 пикселей
Соотношение сторон : 16:9
Режим частоты кадров : Переменный
Частота кадров : 23,920 кадра/сек
Частота кадров в оригинале : 23,976 кадра/сек
Минимальная частота кадров : 0,856 кадр/сек
Максимальная частота кадров : 23,976 кадра/сек
Цветовое пространство : YUV
Субдискретизация насыщенности : 4:2:0
Битовая глубина : 8 бит
Тип развёртки : Прогрессивная
Метод сжатия : С потерями
Бит/(Пиксели*Кадры) : 0.163
Размер потока : 902 Мбайт (91%)
Библиотека кодирования : XviD 1.2.1 (UTC 2008-12-04)
Дата кодирования : UTC 2013-05-15 00:10:39
Дата пометки : UTC 2013-05-15 00:11:10

Аудио
Идентификатор : 101
Формат : AAC
Формат/Информация : Advanced Audio Codec
Профиль формата : LC
Идентификатор кодека : 40
Продолжительность : 1 ч. 30 м.
Вид битрейта : Переменный
Битрейт : 128 Кбит/сек
Максимальный битрейт : 164 Кбит/сек
Каналы : 2 канала
Расположение каналов : Front: L R
Частота : 48,0 КГц
Метод сжатия : С потерями
Размер потока : 82,6 Мбайт (8%)
Дата кодирования : UTC 2013-05-15 00:11:08
Дата пометки : UTC 2013-05-15 00:11:10


Трекер:  [ 12-Июн-2013 21:18 ]

  

Скачать .torrent

Размер .torrent файла 15 KB


Размер: 2.92 GB
Хэш (hash) релиза: 4db3d313afc458987003ba5aca9e75b09f4c5069

Торренты, похожие на [VIDEO] Библиотекарь. Трилогия The Librarian. Trilogy скачать торрент

Форум Название Автор Размер S L Добавлен
Видео (Фильмы/Клипы) ·· [VIDEO] Библиотекарь. Трилогия / The Librarian. Trilogy (Питер Уинтер / Peter Winther, Джонатан Фрейкс / Jonathan Frakes) [2004, 2006, 2008, Фэнтези, боевик, приключения, HDRip] [MP4, 640x] MVO Galfimbul 18618067651.73 GB 0 0 1368565173

23:59

14-Май-13

bot

Топик был перенесен из форума Мобильные устройства в форум Мобильные телефоны

Galfimbul

Хотите добавить комментарий к записи скачать торрент [VIDEO] Библиотекарь. Трилогия The Librarian. Trilogy

!Обратная связь