Сверхъестественное / Supernatural (HD Video) | Alexandra Monir | One Shot 2016

Скачать через торрент [VIDEO] Библиотекарь. Трилогия The Librarian. Trilogy бесплатно русская версия torrent активатор

Статистика раздачи
Размер:  1.73 GB   |    Зарегистрирован:  5 лет 1 месяц   |    .torrent скачан:  44 раза   |   
Раздают:  1  
   
загрузка...
 
Автор Сообщение

Galfimbul

avatar Galfimbul


Библиотекарь. Трилогия
The Librarian. Trilogy
Год выпуска: 2004, 2006, 2008
Страна: США
Жанр: фэнтези, боевик, приключения
Продолжительность: 1:30:14, 1:32:01, 1:30:10
Режиссер: Питер Уинтер / Peter Winther, Джонатан Фрейкс / Jonathan Frakes
Библиотекарь: В поисках копья судьбы
The Librarian: Quest for the Spear

Год выпуска: 2004
Страна: США
Жанр: Фэнтези, приключения, комедия
Продолжительность: 1:30:14
Перевод: Профессиональный (многоголосый, закадровый) "СОЮЗ Видео"
Cубтитры: Нет
Режиссер: Питер Уинтер / Peter Winther
В ролях: Ноа Уайли, Соня Уолгер, Боб Ньюхарт, Кайл МакЛоклен, Келли Ху, Джейн Куртин, Дэвид Дайан Фишер, Олимпия Дукакис, Лиза Бреннер, Марио Иван Мартинес
Описание: Из тайных хранилищ Нью-Йоркской Публичной библиотеки похищен магический артефакт — фрагмент Копья Судьбы. Библиотекарь Флинн Карсен должен вернуть его любой ценой и заодно найти оставшиеся два фрагмента прежде, чем ими завладеют злодеи.

Качество: HDRip (Рип с BDRip 720p)
Формат: MP4
Видео кодек: XviD
Аудио кодек: AAC
Видео: 640х360, 25 fps, 768 Kbps
Аудио: 128 Kbps, 44.1 KHz, 2 ch
Общее
Полное имя : [VIDEO]Bibliotekar.1.poiskah.kopja.sudby.2004.HDrip.640x(semen_52-TNC).mp4
Формат : MPEG-4
Профиль формата : Base Media / Version 2
Идентификатор кодека : mp42
Размер файла : 582 Мбайт
Продолжительность : 1 ч. 30 м.
Режим общего битрейта : Переменный
Общий поток : 901 Кбит/сек
Название фильма : [VIDEO]Bibliotekar 1 poiskah kopja sudby 2004 HDrip 640x(semen_52-TNC)
Дата кодирования : UTC 2013-05-13 23:44:33
Дата пометки : UTC 2013-05-14 17:00:51
Примечание : Rip by semen_52-TNC
hdvd : 0
stik : 9

Видео
Идентификатор : 201
Формат : MPEG-4 Visual
Профиль формата : Advanced [email protected]
Параметр BVOP формата : Нет
Параметр QPel формата : Нет
Параметр GMC формата : Без точки перехода
Параметр матрицы формата : Default (H.263)
Идентификатор кодека : 20
Продолжительность : 1 ч. 30 м.
Вид битрейта : Переменный
Битрейт : 768 Кбит/сек
Максимальный битрейт : 2776 Мбит/сек
Ширина : 640 пикселей
Высота : 360 пикселей
Соотношение сторон : 16:9
Режим частоты кадров : Переменный
Частота кадров : 24,918 кадров/сек
Частота кадров в оригинале : 25,000 кадров/сек
Минимальная частота кадров : 0,521 кадр/сек
Максимальная частота кадров : 25,000 кадров/сек
Цветовое пространство : YUV
Субдискретизация насыщенности : 4:2:0
Битовая глубина : 8 бит
Тип развёртки : Прогрессивная
Метод сжатия : С потерями
Бит/(Пиксели*Кадры) : 0.134
Размер потока : 496 Мбайт (85%)
Библиотека кодирования : XviD 1.2.1 (UTC 2008-12-04)
Дата кодирования : UTC 2013-05-13 23:44:33
Дата пометки : UTC 2013-05-13 23:44:51

Аудио
Идентификатор : 101
Формат : AAC
Формат/Информация : Advanced Audio Codec
Профиль формата : LC
Идентификатор кодека : 40
Продолжительность : 1 ч. 30 м.
Вид битрейта : Переменный
Битрейт : 128 Кбит/сек
Максимальный битрейт : 177 Кбит/сек
Каналы : 2 канала
Расположение каналов : Front: L R
Частота : 48,0 КГц
Метод сжатия : С потерями
Размер потока : 82,6 Мбайт (14%)
Дата кодирования : UTC 2013-05-13 23:44:48
Дата пометки : UTC 2013-05-13 23:44:51
Библиотекарь 2: Возвращение в Копи Царя Соломона
The Librarian: Return to King Solomon''s Mines

Год выпуска: 2006
Страна: США
Жанр: фэнтези, боевик, приключения
Продолжительность: 1:32:01
Перевод: Профессиональный (многоголосый, закадровый) "СОЮЗ Видео"
Cубтитры: Нет
Режиссер: Джонатан Фрейкс / Jonathan Frakes
В ролях: Ноа Уайли, Габриель Анвар, Боб Ньюхарт, Джейн Куртин, Олимпия Дукакис, Эрик Авари, Хаким Кае-Казим, Роберт Фоксуорт, Занн МаКларнон, Лиза Бреннер
Описание: Флин Карсен, интеллигентный юноша, сотрудник Нью Йоркской библиотеки. Но в его душе всегда жила страсть к приключениям, тайнам и всему тому, чем грезит любой мальчишка. Однажды, ему на глаза попадается интереснейший труд о легендарных Копях Царя Соломона. Флин решает найти мифические сокровища, променяв затхлый воздух помещения и книжных клопов на дух романтики и авантюризма…

Качество: HDRip (Рип с BDRip 720p)
Формат: MP4
Видео кодек: XviD
Аудио кодек: AAC
Видео: 640х360, 23.976 fps, 798 Kbps
Аудио: 128 Kbps, 44.1 KHz, 2 ch
Общее
Полное имя : [VIDEO]Bibliotekar.2.Vozvrashenie.v.kopi.carya.solomona.HDrip.640x(semen_52-TNC).mp4
Формат : MPEG-4
Профиль формата : Base Media / Version 2
Идентификатор кодека : mp42
Размер файла : 613 Мбайт
Продолжительность : 1 ч. 32 м.
Режим общего битрейта : Переменный
Общий поток : 931 Кбит/сек
Название фильма : [VIDEO]Bibliotekar 2 Vozvrashenie v kopi carya solomona HDrip 640x(semen_52-TNC)
Дата кодирования : UTC 2013-05-13 20:54:35
Дата пометки : UTC 2013-05-14 17:02:00
Примечание : Rip by semen_52-TNC
hdvd : 0
stik : 9

Видео
Идентификатор : 201
Формат : MPEG-4 Visual
Профиль формата : Advanced [email protected]
Параметр BVOP формата : Нет
Параметр QPel формата : Нет
Параметр GMC формата : Без точки перехода
Параметр матрицы формата : Default (H.263)
Идентификатор кодека : 20
Продолжительность : 1 ч. 32 м.
Вид битрейта : Переменный
Битрейт : 798 Кбит/сек
Максимальный битрейт : 2658 Мбит/сек
Ширина : 640 пикселей
Высота : 360 пикселей
Соотношение сторон : 16:9
Режим частоты кадров : Переменный
Частота кадров : 23,833 кадра/сек
Частота кадров в оригинале : 23,976 кадра/сек
Минимальная частота кадров : 0,888 кадр/сек
Максимальная частота кадров : 23,976 кадра/сек
Цветовое пространство : YUV
Субдискретизация насыщенности : 4:2:0
Битовая глубина : 8 бит
Тип развёртки : Прогрессивная
Метод сжатия : С потерями
Бит/(Пиксели*Кадры) : 0.145
Размер потока : 525 Мбайт (86%)
Библиотека кодирования : XviD 1.2.1 (UTC 2008-12-04)
Дата кодирования : UTC 2013-05-13 20:54:35
Дата пометки : UTC 2013-05-13 20:54:55

Аудио
Идентификатор : 101
Формат : AAC
Формат/Информация : Advanced Audio Codec
Профиль формата : LC
Идентификатор кодека : 40
Продолжительность : 1 ч. 32 м.
Вид битрейта : Переменный
Битрейт : 128 Кбит/сек
Максимальный битрейт : 165 Кбит/сек
Каналы : 2 канала
Расположение каналов : Front: L R
Частота : 48,0 КГц
Метод сжатия : С потерями
Размер потока : 84,2 Мбайт (14%)
Дата кодирования : UTC 2013-05-13 20:54:51
Дата пометки : UTC 2013-05-13 20:54:55
Библиотекарь 3: Проклятие Иудовой чаши
The Librarian: The Curse of the Judas Chalice

Год выпуска: 2008
Страна: США
Жанр: Фэнтези, боевик, приключения
Продолжительность: 1:30:10
Перевод: Профессиональный (многоголосый, закадровый) "СОЮЗ Видео"
Cубтитры: Нет
Режиссер: Джонатан Фрейкс / Jonathan Frakes
В ролях: Ноа Уайли, Брюс Дэвисон, Стана Катик, Боб Ньюхарт, Джейн Куртин, Дэвид Борн, Джейсон Дуглас, Элизабет Бурвант, Джо Кнезевич
Описание: Третья часть захватывающих приключений Флина Карсена, в которой Флину вновь предстоит спасти мир, но уже от угрожающего всеобщему спокойствию воскрешения Графа Дракулы. Находясь в отпуске, Флин знакомится с умопомрачительной красоткой Симоной, которая совершенно неожиданно для Флина узнает в нем Библиотекаря и обращается к нему за помощью. Вместе они пытаются опередить русского злодея в поисках Чаши Иуды, которая одна способна воскресить к жизни великого вампира.

Качество: HDRip (Рип с BDRip 720p)
Формат: MP4
Видео кодек: XviD
Аудио кодек: AAC
Видео: 640х360, 23.976 fps, 768 Kbps
Аудио: 128 Kbps, 44.1 KHz, 2 ch
Общее
Полное имя : [VIDEO]Bibliotekar.3.Prokljatie.Iudovoj.chashi.2008.HDrip.640x(semen_52-TNC).mp4
Формат : MPEG-4
Профиль формата : Base Media / Version 2
Идентификатор кодека : mp42
Размер файла : 581 Мбайт
Продолжительность : 1 ч. 30 м.
Режим общего битрейта : Переменный
Общий поток : 901 Кбит/сек
Название фильма : [VIDEO]Bibliotekar 3 Prokljatie Iudovoj chashi 2008 HDrip 640x(semen_52-TNC)
Дата кодирования : UTC 2013-05-14 02:38:51
Дата пометки : UTC 2013-05-14 17:02:37
Примечание : Rip by semen_52-TNC
hdvd : 0
stik : 9

Видео
Идентификатор : 201
Формат : MPEG-4 Visual
Профиль формата : Advanced [email protected]
Параметр BVOP формата : Нет
Параметр QPel формата : Нет
Параметр GMC формата : Без точки перехода
Параметр матрицы формата : Default (H.263)
Идентификатор кодека : 20
Продолжительность : 1 ч. 30 м.
Вид битрейта : Переменный
Битрейт : 768 Кбит/сек
Максимальный битрейт : 2069 Мбит/сек
Ширина : 640 пикселей
Высота : 360 пикселей
Соотношение сторон : 16:9
Режим частоты кадров : Переменный
Частота кадров : 23,868 кадра/сек
Частота кадров в оригинале : 23,976 кадра/сек
Минимальная частота кадров : 0,480 кадр/сек
Максимальная частота кадров : 23,976 кадра/сек
Цветовое пространство : YUV
Субдискретизация насыщенности : 4:2:0
Битовая глубина : 8 бит
Тип развёртки : Прогрессивная
Метод сжатия : С потерями
Бит/(Пиксели*Кадры) : 0.140
Размер потока : 495 Мбайт (85%)
Библиотека кодирования : XviD 1.2.1 (UTC 2008-12-04)
Дата кодирования : UTC 2013-05-14 02:38:51
Дата пометки : UTC 2013-05-14 02:39:09

Аудио
Идентификатор : 101
Формат : AAC
Формат/Информация : Advanced Audio Codec
Профиль формата : LC
Идентификатор кодека : 40
Продолжительность : 1 ч. 30 м.
Вид битрейта : Переменный
Битрейт : 128 Кбит/сек
Максимальный битрейт : 164 Кбит/сек
Каналы : 2 канала
Расположение каналов : Front: L R
Частота : 48,0 КГц
Метод сжатия : С потерями
Размер потока : 82,6 Мбайт (14%)
Дата кодирования : UTC 2013-05-14 02:39:06
Дата пометки : UTC 2013-05-14 02:39:09


Трекер:  [ 12-Июн-2013 21:18 ]

  

Скачать .torrent

Размер .torrent файла 18 KB


Размер: 1.73 GB
Хэш (hash) релиза: 8a888e337fe09d173b3d218957c8d8d449e6ab0a

Торренты, похожие на [VIDEO] Библиотекарь. Трилогия The Librarian. Trilogy скачать торрент

Форум Название Автор Размер S L Добавлен
Видео (Фильмы/Клипы) ·· [VIDEO] Библиотекарь. Трилогия / The Librarian. Trilogy (Питер Уинтер / Peter Winther, Джонатан Фрейкс / Jonathan Frakes) [2004, 2006, 2008, Фэнтези, боевик, приключения, HDRip] [MP4, 800x] MVO Galfimbul 31324327142.92 GB 0 0 1368651007

23:50

15-Май-13

bot

Топик был перенесен из форума Мобильные устройства в форум Мобильные телефоны

Galfimbul

Хотите добавить комментарий к записи скачать торрент [VIDEO] Библиотекарь. Трилогия The Librarian. Trilogy

!Обратная связь