De rouille et d'os TELECHARGEMENT GRATUIT | تحميل XAPK | Park (2006)

Скачать через торрент [VIDEO] Джанго освобожденный Django Unchained бесплатно русская версия torrent активатор

Статистика раздачи
Размер:  1.13 GB   |    Зарегистрирован:  5 лет 2 месяца   |    .torrent скачан:  111 раз   |   
Раздают:  1  
   
загрузка...
 
Автор Сообщение

Galfimbul

avatar Galfimbul


Джанго освобожденный / Django Unchained«Они забрали его свободу. Он заберёт у них всё.»
Год выпуска: 2012
Продолжительность: 02:45:22
Производство: США
Жанр: драма, вестерн, комедия, приключения
Перевод: Профессиональный (полное дублирование) | Лицензия
Субтитры: русские (форсированные, надписи и прочее)
Дата мировой премьеры: 25 декабря 2012
Режиссер: Квентин Тарантино / Quentin Tarantino
Актеры: Джейми Фокс (Django), Кристоф Вальц (Dr. King Schultz), Леонардо ДиКаприо (Calvin Candie), Керри Вашингтон (Broomhilda von Schaft), Сэмюэл Л. Джексон (Stephen), Уолтон Гоггинс (Billy Crash), Деннис Кристофер (Leonide Moguy), Джеймс Римар (Butch Pooch / Ace Speck), Дон Джонсон (Big Daddy), Франко Неро (Amerigo Vessepi), Майкл Паркс (The LeQuint Dickey Mining Co. Employee), Квентин Тарантино (The LeQuint Dickey Mining Co. Employee), Джона Хилл (Bag Head #2)
Описание фильма:
Эксцентричный охотник за головами, также известный как «Дантист», промышляет отстрелом самых опасных преступников на Диком Западе. Работенка пыльная, и без надежного помощника ему не обойтись. Но как найти такого и желательно не очень дорогого? Беглый раб по имени Джанго — прекрасная кандидатура. Правда, у нового помощника свои мотивы — кое с чем надо разобраться…
Рейтинг:

Качество: BDRip [Исходник BDRip 1080p] | Формат: MP4 | Видео кодек: H.264 | Аудио кодек: AAC
Видео: 800x336 (AR 2.40:1), 850 Kbps, 23.976 fps | Аудио: 128 Kbps, 48.0 KHz, 2ch, Stereo

General
Complete name : H:\Encode\Django Unchained.mp4
Format : MPEG-4
Format profile : Base Media
Codec ID : isom
File size : 1.13 GiB
Duration : 2h 45mn
Overall bit rate mode : Variable
Overall bit rate : 982 Kbps
Encoded date : UTC 2013-05-02 00:14:53
Tagged date : UTC 2013-05-02 00:14:53

Video
ID : 1
Format : AVC
Format/Info : Advanced Video Codec
Format profile : [email protected]
Format settings, CABAC : Yes
Format settings, ReFrames : 6 frames
Codec ID : avc1
Codec ID/Info : Advanced Video Coding
Duration : 2h 45mn
Bit rate : 850 Kbps
Maximum bit rate : 6 177 Kbps
Width : 800 pixels
Height : 336 pixels
Display aspect ratio : 2.40:1
Frame rate mode : Constant
Frame rate : 23.976 fps
Color space : YUV
Chroma subsampling : 4:2:0
Bit depth : 8 bits
Scan type : Progressive
Bits/(Pixel*Frame) : 0.132
Stream size : 1 005 MiB (87%)
Writing library : x264 core 130 r2273 b3065e6
Encoding settings : cabac=1 / ref=6 / deblock=1:0:0 / analyse=0x3:0x131 / me=umh / subme=9 / psy=1 / psy_rd=1.00:0.00 / mixed_ref=1 / me_range=24 / chroma_me=1 / trellis=1 / 8x8dct=1 / cqm=0 / deadzone=21,11 / fast_pskip=1 / chroma_qp_offset=-2 / threads=4 / lookahead_threads=1 / sliced_threads=0 / nr=0 / decimate=1 / interlaced=0 / bluray_compat=0 / constrained_intra=0 / bframes=6 / b_pyramid=2 / b_adapt=2 / b_bias=0 / direct=3 / weightb=1 / open_gop=0 / weightp=2 / keyint=250 / keyint_min=23 / scenecut=40 / intra_refresh=0 / rc_lookahead=40 / rc=2pass / mbtree=1 / bitrate=850 / ratetol=1.0 / qcomp=0.60 / qpmin=0 / qpmax=69 / qpstep=4 / cplxblur=20.0 / qblur=0.5 / ip_ratio=1.40 / aq=1:1.00
Encoded date : UTC 2013-05-02 00:14:53
Tagged date : UTC 2013-05-02 00:15:32

Audio
ID : 2
Format : AAC
Format/Info : Advanced Audio Codec
Format profile : LC
Codec ID : 40
Duration : 2h 45mn
Bit rate mode : Variable
Bit rate : 128 Kbps
Maximum bit rate : 180 Kbps
Channel(s) : 2 channels
Channel positions : Front: L R
Sampling rate : 48.0 KHz
Compression mode : Lossy
Delay relative to video : 125ms
Stream size : 151 MiB (13%)
Encoded date : UTC 2013-05-02 00:15:26
Tagged date : UTC 2013-05-02 00:15:32
x264 [info]: frame I:2123 Avg QP:15.32 size: 53019
x264 [info]: frame P:51262 Avg QP:18.51 size: 11267
x264 [info]: frame B:184527 Avg QP:22.14 size: 1972
x264 [info]: consecutive B-frames: 1.8% 2.3% 6.4% 25.4% 19.8% 30.1% 14.2%
x264 [info]: mb I I16..4: 10.8% 57.6% 31.6%
x264 [info]: mb P I16..4: 1.3% 0.0% 3.2% P16..4: 40.6% 17.0% 19.6% 1.8% 1.0% skip:15.6%
x264 [info]: mb B I16..4: 0.1% 0.0% 0.2% B16..8: 37.0% 5.4% 2.0% direct: 1.9% skip:53.4% L0:42.1% L1:49.4% BI: 8.5%
x264 [info]: 8x8 transform intra:24.6% inter:67.2%
x264 [info]: direct mvs spatial:94.5% temporal:5.5%
x264 [info]: coded y,uvDC,uvAC intra: 82.5% 83.7% 63.6% inter: 15.9% 13.4% 2.6%
x264 [info]: i16 v,h,dc,p: 31% 16% 10% 43%
x264 [info]: i8 v,h,dc,ddl,ddr,vr,hd,vl,hu: 14% 10% 5% 9% 12% 13% 12% 12% 14%
x264 [info]: i4 v,h,dc,ddl,ddr,vr,hd,vl,hu: 8% 5% 3% 10% 17% 15% 15% 13% 15%
x264 [info]: i8c dc,h,v,p: 41% 22% 20% 17%
x264 [info]: Weighted P-Frames: Y:2.7% UV:1.7%
x264 [info]: ref P L0: 54.7% 11.7% 14.7% 7.3% 5.3% 5.8% 0.6% 0.0%
x264 [info]: ref B L0: 80.2% 10.4% 6.4% 2.0% 1.1%
x264 [info]: ref B L1: 90.8% 9.2%
x264 [info]: kb/s:849.84
Релиз подготовлен:



Трекер:  [ 12-Июн-2013 21:19 ]

  

Скачать .torrent

Размер .torrent файла 12 KB


Размер: 1.13 GB
Хэш (hash) релиза: 39f6f124bda83e9fdbd5501262e9d43607b09e5a

bot

Топик был перенесен из форума Мобильные устройства в форум Мобильные телефоны

Galfimbul

Хотите добавить комментарий к записи скачать торрент [VIDEO] Джанго освобожденный Django Unchained

!Обратная связь