Rahmadonce | The Greatest Showman FRENCH DVDRIP 2018 | Ore Monogatari!

Скачать через торрент Май-Химэ - Чёрный Танец, Тайная Вечеря бесплатно Аниме Все серии на русском torrent

Статистика раздачи
Размер:  85 MB   |    Зарегистрирован:  7 лет 9 месяцев   |    .torrent скачан:  80 раз   |   
Раздают:  1  
   
загрузка...
 
Автор Сообщение

bot

avatar bot


Май-Химэ - Чёрный Танец, Тайная Вечеря / (My-Hime) Mai-HiME - Kuro no Mai Saigo no Bansan


Год выпуска: 2010
Страна: Япония
Жанр: приключения, драма, комедия
Продолжительность: 00:04:16
Русские субтитры: есть
Субтитры от Karsh, источник - http://www.fansubs.ru
Режиссер: Охара Масакадзу

Описание: Спешл с BD. Как и ДВД спешлы, содержит много-много фансервиса на радость нятроцелу всем зрителям.
Жанры применительны к сериалу в целом, в данном спешле преобладает лишь комедия.
Информация по сериалу
Качество: BDRip
Формат: MKV
Видео: H.264; 1280x720; 16/9; 2071Kbps; 24.00fps
Аудио: JAP; AC-3; 640 Kbps; 48.0 KHz; 2.0 ch
Видео: Format : AVC
Format/Info : Advanced Video Codec
Format profile : [email protected]
Format settings, CABAC : Yes
Format settings, ReFrames : 3 frames
Muxing mode : Container [email protected]
Codec ID : V_MPEG4/ISO/AVC
Duration : 4mn 16s
Bit rate : 2 071 Kbps
Width : 1 280 pixels
Height : 720 pixels
Display aspect ratio : 16:9
Frame rate : 24.000 fps
Resolution : 8 bits
Colorimetry : 4:2:0
Scan type : Progressive
Bits/(Pixel*Frame) : 0.094
Stream size : 63.3 MiB (75%)
Writing library : x264 core 80 r1376M 3feaec2
Аудио: Format : AC-3
Format/Info : Audio Coding 3
Codec ID : A_AC3
Duration : 4mn 16s
Bit rate mode : Constant
Bit rate : 640 Kbps
Channel(s) : 2 channels
Channel positions : L R
Sampling rate : 48.0 KHz
Stream size : 19.6 MiB (23%)



Трекер:  [ 12-Окт-2010 23:50 ]

  

Скачать .torrent

Размер .torrent файла 2 KB


Размер: 85 MB
Хэш (hash) релиза: df777ba9f817dd1678ad065be82c6558ecd019b8
Подписка на обновления:

Еще никто не оставлял запись к записи скачать торрент Май-Химэ - Чёрный Танец, Тайная Вечеря . Будь первым!

!Обратная связь