Mr. House Husband | Download YoungHeart - Known (Tauren Wells) mp3 | Die Abenteuer des Brisco County Jr.

Скачать через торрент [VIDEO] Джанго освобожденный Django Unchained бесплатно русская версия torrent активатор

Статистика раздачи
Размер:  1.4 GB   |    Зарегистрирован:  5 лет 1 месяц   |    .torrent скачан:  54 раза   |   
Раздают:  1  
   
загрузка...
 
Автор Сообщение

Galfimbul

avatar Galfimbul


Джанго освобожденный / Django Unchained

Год выпуска: 2012

Страна: США
Жанр: драма, вестерн, комедия, приключения
Продолжительность: 02:45:33
Перевод: Профессиональный (дублированный)
Cубтитры: нет

Режиссер: Квентин Тарантино / Quentin Tarantino

В ролях: Джейми Фокс (Django), Кристоф Вальц (Dr. King Schultz), Леонардо ДиКаприо (Calvin Candie), Керри Вашингтон (Broomhilda von Schaft), Сэмюэл Л. Джексон (Stephen), Уолтон Гоггинс (Billy Crash), Деннис Кристофер (Leonide Moguy), Джеймс Римар (Butch Pooch / Ace Speck), Дон Джонсон (Big Daddy), Франко Неро (Amerigo Vessepi), Майкл Паркс (The LeQuint Dickey Mining Co. Employee), Квентин Тарантино (The LeQuint Dickey Mining Co. Employee), Джона Хилл (Bag Head #2)

Описание: Эксцентричный охотник за головами, также известный как «Дантист», промышляет отстрелом самых опасных преступников на Диком Западе. Работенка пыльная, и без надежного помощника ему не обойтись. Но как найти такого и желательно не очень дорогого? Беглый раб по имени Джанго — прекрасная кандидатура. Правда, у нового помощника свои мотивы — кое с чем надо разобраться…

Качество: BDRip
Формат: MP4
Видео кодек: XviD
Аудио кодек: AAC
Видео: XviD, 640x264, 2.40:1, 1 080 Kbps, 23.976 fps
Аудио: AAC, 128 Kbps, 48.0 KHz, 2 ch.
GeneralComplete name : D:\!РИПЫ\Новая папка\Django Unchained (2012).mp4Format : MPEG-4Format profile : Base Media / Version 2Codec ID : mp42File size : 1.40 GiBDuration : 2h 45mnOverall bit rate mode : VariableOverall bit rate : 1 210 KbpsEncoded date : UTC 2013-04-27 19:15:24Tagged date : UTC 2013-04-27 19:15:24

VideoID : 201Format : MPEG-4 VisualFormat profile : Advanced [email protected] settings, BVOP : NoFormat settings, QPel : NoFormat settings, GMC : No warppointsFormat settings, Matrix : Default (H.263)Codec ID : 20Duration : 2h 45mnBit rate mode : VariableBit rate : 1 080 KbpsMaximum bit rate : 8 461 KbpsWidth : 640 pixelsHeight : 264 pixelsDisplay aspect ratio : 2.40:1Frame rate mode : VariableFrame rate : 23.880 fpsOriginal frame rate : 23.976 fpsMinimum frame rate : 0.375 fpsMaximum frame rate : 23.976 fpsColor space : YUVChroma subsampling : 4:2:0Bit depth : 8 bitsScan type : ProgressiveCompression mode : LossyBits/(Pixel*Frame) : 0.268Stream size : 1.25 GiB (89%)Title : Imported with GPAC 0.4.6-DEV (build 1)Writing library : XviD 1.2.1 (UTC 2008-12-04)Encoded date : UTC 2013-04-27 19:15:24Tagged date : UTC 2013-04-27 19:16:00

AudioID : 101Format : AACFormat/Info : Advanced Audio CodecFormat profile : LCCodec ID : 40Duration : 2h 45mnBit rate mode : VariableBit rate : 128 KbpsMaximum bit rate : 161 KbpsChannel(s) : 2 channelsChannel positions : Front: L RSampling rate : 48.0 KHzCompression mode : LossyStream size : 151 MiB (11%)Encoded date : UTC 2013-04-27 19:15:57Tagged date : UTC 2013-04-27 19:16:00



Трекер:  [ 24-Май-2013 20:44 ]

  

Скачать .torrent

Размер .torrent файла 14 KB


Размер: 1.4 GB
Хэш (hash) релиза: 4be76e23518a05d6b3c4b0a698d03145f658f9d3

bot

Топик был перенесен из форума Мобильные устройства в форум Мобильные телефоны

Galfimbul

Хотите добавить комментарий к записи скачать торрент [VIDEO] Джанго освобожденный Django Unchained

!Обратная связь