- The Staircase S01E01 iNTERNAL 1080p HEVC x265-MeGusta | Mirror 5 (UK - England) | The Bold Type – Der Weg nach Oben

Скачать через торрент [VIDEO] Никто не выжил No One Lives бесплатно русская версия torrent активатор

Статистика раздачи
Размер:  696 MB   |    Зарегистрирован:  5 лет 1 месяц   |    .torrent скачан:  14 раз   |   
Раздают:  1  
   
загрузка...
 
Автор Сообщение

Galfimbul

avatar Galfimbul


Никто не выжил / No One Lives

Год выпуска: 2012

Страна: США
Жанр: Ужасы, триллер
Продолжительность: 01:26:08
Перевод: Профессиональный (дублированный)
Cубтитры: нет

Режиссер: Рюхэй Китамура
В ролях: Люк Эванс, Эделейд Клеменс, Дерек Магияр, Бо Напп, Америка Оливо, Ли Тергесен, Линдси Шоу, Джордж Мердок, Лаура Рэмси, Гэри Граббс, Сергей Смирнов, Лиза Мартиросова, Антон Колесников, Даниил Щебланов, Татьяна Шитова
Описание: Безжалостные преступники спрятали в заброшенном доме двух заложников, юношу и девушку. Однако через некоторое время головорезы находят заложницу мертвой и неожиданно понимают, что юноша не так прост, как казался на первый взгляд. И теперь это он на них охотится...

Качество: HDRip
Формат: MP4
Видео кодек: Другой MPEG4
Аудио кодек: AAC
Видео: mp4, 640x272, 2.35:1, 999 kbps, 23 fps
Аудио: AAC, 2 ch, 44,1 khz, 128 kbps
GeneralComplete name : C:\Users\Григорий\Desktop\Фильмы\640 -\Nikto.ne.vyzhil.2012.D.mp4Format : MPEG-4Format profile : Base Media / Version 2Codec ID : mp42File size : 696 MiBDuration : 1h 26mnOverall bit rate : 1 129 KbpsEncoded date : UTC 2013-04-25 15:44:16Tagged date : UTC 2013-04-25 16:03:41

VideoID : 1Format : MPEG-4 VisualFormat profile : Advanced [email protected] settings, BVOP : NoFormat settings, QPel : NoFormat settings, GMC : No warppointsFormat settings, Matrix : Default (H.263)Codec ID : 20Duration : 1h 26mnBit rate mode : ConstantBit rate : 999 KbpsWidth : 640 pixelsHeight : 272 pixelsDisplay aspect ratio : 2.35:1Frame rate mode : VariableFrame rate : 23.000 fpsMinimum frame rate : 22.994 fpsMaximum frame rate : 23.000 fpsColor space : YUVChroma subsampling : 4:2:0Bit depth : 8 bitsScan type : ProgressiveCompression mode : LossyBits/(Pixel*Frame) : 0.249Stream size : 615 MiB (88%)Language : EnglishEncoded date : UTC 2013-04-25 15:44:16Tagged date : UTC 2013-04-25 16:03:41

AudioID : 2Format : AACFormat/Info : Advanced Audio CodecFormat profile : LCCodec ID : 40Duration : 1h 26mnBit rate mode : ConstantBit rate : 128 KbpsChannel(s) : 2 channelsChannel positions : Front: L RSampling rate : 48.0 KHzCompression mode : LossyStream size : 78.8 MiB (11%)Language : EnglishEncoded date : UTC 2013-04-25 15:44:16Tagged date : UTC 2013-04-25 16:03:41


Трекер:  [ 24-Май-2013 20:44 ]

  

Скачать .torrent

Размер .torrent файла 14 KB


Размер: 696 MB
Хэш (hash) релиза: d0c37ee4077cf6cd85910278141e06d7ceff3c1e

bot

Топик был перенесен из форума Мобильные устройства в форум Мобильные телефоны

Galfimbul

Хотите добавить комментарий к записи скачать торрент [VIDEO] Никто не выжил No One Lives

!Обратная связь