July 2017 (227) | Elsie Robson | Paul Coufos

Скачать через торрент Такси Taxi Фильм бесплатно в хорошем качестве torrent

Скачивайте на UnionPeer.org фильмы через торрент без регистрации. Новинки кино в хорошем качестве через торрент. На UnionPeer.org можно скачать через торрент фильмы 2014 и 2015 годов. Самые новые фильмы.

Скачать торрент Такси Taxi бесплатно через .torrent фильм мультфильм сериал

Статистика раздачи
Размер:  1.95 GB   |    Зарегистрирован:  5 лет 2 месяца   |    .torrent скачан:  39 раз   |   
Раздают:  1  
   
загрузка...
 
Автор Сообщение

damien1990


Такси / Taxi

Год выпуска: 1982
Страна: США
Жанр: ситком
Продолжительность: 00:24:00

Перевод: субтитры
Русские субтитры: есть
Автор перевода: voorwater, zare

Режиссёр: Джеймс Берроуз

В ролях: Джадд Хёрш, Дэнни ДеВито, Мэрилу Хеннер, Тони Данза, Дж. Алан Томас, Кристофер Ллойд, Энди Кауфман, Кэрол Кейн.

Описание: Сотрудники такси в Нью-Йорке ходят на свою работу, мечтая о более высоких достижениях.

Сэмпл: http://www.sendspace.com/file/y7phq8

Качество: DVDRip-AVC
Формат: MKV
Видео кодек: H.264
Аудио кодек: AС3
Видео: AVC, 720x480, 29.970 fps, 1802 kbps, 0.155 bit/pixel
Аудио: AC3, 48 kHz, 2 ch, 160 kbps
.........Taxi 5-1.mkv
General
Unique ID : 220380278279675596443559013422926477096 (0xA5CBB29D10A4C2899AA30735E3C13728)
Complete name : ..............Taxi 5-1.mkv
Format : Matroska
Format version : Version 2
File size : 311 MiB
Duration : 24mn 6s
Overall bit rate : 1 802 Kbps
Encoded date : UTC 2013-02-15 13:48:04
Writing application : mkvmerge v5.7.0 (''The Whirlwind'') built on Jul 8 2012 20:08:51
Writing library : libebml v1.2.3 + libmatroska v1.3.0
Video #1
ID : 1
Format : AVC
Format/Info : Advanced Video Codec
Format profile : [email protected]
Format settings, CABAC : Yes
Format settings, ReFrames : 4 frames
Codec ID : V_MPEG4/ISO/AVC
Duration : 24mn 6s
Bit rate : 1 607 Kbps
Width : 720 pixels
Height : 480 pixels
Display aspect ratio : 4:3
Original display aspect ratio : 4:3
Frame rate mode : Constant
Frame rate : 29.970 fps
Standard : NTSC
Color space : YUV
Chroma subsampling : 4:2:0
Bit depth : 8 bits
Scan type : Progressive
Bits/(Pixel*Frame) : 0.155
Stream size : 277 MiB (89%)
Writing library : x264 core 120
Encoding settings : cabac=1 / ref=3 / deblock=1:0:0 / analyse=0x3:0x113 / me=hex / subme=7 / psy=1 / psy_rd=1.00:0.00 / mixed_ref=1 / me_range=16 / chroma_me=1 / trellis=1 / 8x8dct=1 / cqm=0 / deadzone=21,11 / fast_pskip=1 / chroma_qp_offset=-2 / threads=3 / sliced_threads=0 / nr=0 / decimate=1 / interlaced=0 / bluray_compat=0 / constrained_intra=0 / bframes=3 / b_pyramid=2 / b_adapt=2 / b_bias=0 / direct=1 / weightb=1 / open_gop=0 / weightp=2 / keyint=300 / keyint_min=30 / scenecut=40 / intra_refresh=0 / rc_lookahead=50 / rc=crf / mbtree=1 / crf=20.0 / qcomp=0.60 / qpmin=3 / qpmax=69 / qpstep=4 / ip_ratio=1.40 / aq=1:1.00
Language : English
Default : Yes
Forced : No
Color primaries : BT.601 NTSC
Transfer characteristics : BT.709
Matrix coefficients : BT.601
Audio #2
ID : 2
Format : AC-3
Format/Info : Audio Coding 3
Mode extension : CM (complete main)
Format settings, Endianness : Big
Codec ID : A_AC3
Duration : 24mn 6s
Bit rate mode : Constant
Bit rate : 160 Kbps
Channel(s) : 2 channels
Channel positions : Front: L R
Sampling rate : 48.0 KHz
Bit depth : 16 bits
Compression mode : Lossy
Stream size : 27.6 MiB (9%)
Language : English
Default : No
Forced : No
Внимание! Раздача ведётся путём добавления новых серий; при каждом добавлении создаётся новый торрент. Чтобы начать докачку новой серии, пользователям необходимо сделать следующее:
(1) остановить скачивание,
(2) удалить старый торрент у себя из клиента (старые серии удалять не надо),
(3) скачать новый торрент и запустить его у себя в клиенте вместо старого, при этом указать клиенту путь в старую папку куда и должно происходить скачивание новых серий.

Ваш клиент при этом должен произвести хеширование (проверку) старой папки (если не производит сам - помогите ему сделать это), и будет докачивать только те серии которых у вас ещё нет. Старые серии при этом не удаляются, а продолжают раздаваться!

Eсли вы уже удалили старые серии, то предотвратить повторную закачку старых серий можно, отжав галочку в соответствующих местах при запуске нового торрента. По возможности, желательно не удалять старые серии как можно дольше чтобы релизёр не столько продолжал раздавать старые серии, а смог сконцентрироваться на новых.


Трекер:  [ 28-Мар-2013 01:12 ]

  

Скачать .torrent

Размер .torrent файла 20 KB


Размер: 1.95 GB
Хэш (hash) релиза: 807fc8fc3fd380abb5e680c56dd9377e200dd1cd
Подписка на обновления:

Еще никто не оставлял запись к записи скачать торрент Такси Taxi . Будь первым!

!Обратная связь