Download | Hormones (2013) | PTFiles | PTF | General | 2018 Review

Скачать через торрент [SERIAL] Менталист Mentalist бесплатно русская версия torrent активатор

Статистика раздачи
Размер:  18.26 GB   |    Зарегистрирован:  5 лет 3 месяца   |    .torrent скачан:  126 раз   |   
Раздают:  1  
   
загрузка...
 
Автор Сообщение

Galfimbul

avatar Galfimbul


Менталист / Mentalist

Год выпуска: 2008

Страна: США
Жанр: Детектив, драма, криминал
Продолжительность: 00:43:00
Перевод: Профессиональный (многоголосый, закадровый, Universal Russia + BaibaKo(5 сезон))
Русские субтитры: нет
Режиссер: Крис Лонг, Дэвид Наттер, Роксанн Даусон
В ролях: Саймон Бейкер, Робин Танни, Тим Кан, Оуэн Йомэн, Аманда Ригетти
Описание: Главный герой — Патрик Джейн (Саймон Бейкер), превосходный психолог-практик и манипулятор, некогда притворявшийся «экстрасенсом» и «ясновидящим». Придерживаясь созданного им образа, сотрудничал со следствием в поимке серийного убийцы по имени Красный Джон. В выступлении на телевидении описал, как «ясновидящий», его психологический портрет: «Ущемлённый с детства, жалкий и одинокий». Возмущённый такой «ложью», как он сам выразился в своём послании, Красный Джон убил жену и дочь Патрика...

Теперь Джейн занимается тем, что помогает Калифорнийскому бюро расследований (КБР) в раскрытии различных тяжких преступлений (убийств). Он категорически отрицает, что магия существует, и доказывает, что всё, выдаваемое за магию, — это лишь ловкость рук и наблюдательность. Оказывая всемерную помощь Бюро, он продолжает жить также и надеждой поймать Красного Джона.

Качество: DVDRip
Формат: MP4
Видео кодек: H.264
Аудио кодек: AAC
Видео: MPEG4 Video (H264); 480x272 (16:9); 449 kbps; 24.00fps
Аудио: AAC 44100Hz stereo 126 kbps
ОбщееПолное имя : ...\Mentalist [480x272, mp4]\Mentalist [season 1, 480x272, mp4]\the.mentalist.s01e01.mp4Формат : MPEG-4Профиль формата : Base Media / Version 2Идентификатор кодека : mp42Размер файла : 184 МбайтПродолжительность : 45 м.Режим общего битрейта : ПеременныйОбщий поток : 569 Кбит/секДата кодирования : UTC 2013-01-20 03:09:27Дата пометки : UTC 2013-01-20 03:09:29Программа кодирования : mp4creator 1.4.4

ВидеоИдентификатор : 1Формат : AVCФормат/Информация : Advanced Video CodecПрофиль формата : [email protected]Параметр CABAC формата : НетПараметр ReFrames формата : 2 кадраИдентификатор кодека : avc1Идентификатор кодека/Информация : Advanced Video CodingПродолжительность : 45 м.Вид битрейта : ПеременныйБитрейт : 442 Кбит/секШирина : 480 пикселейВысота : 272 пикселяСоотношение сторон : 16:9Режим частоты кадров : ПостоянныйЧастота кадров : 24,000 кадра/секЦветовое пространство : YUVСубдискретизация насыщенности : 4:2:0Битовая глубина : 8 битТип развёртки : ПрогрессивнаяБит/(Пиксели*Кадры) : 0.141Размер потока : 142 Мбайт (78%)Язык : EnglishДата кодирования : UTC 2013-01-20 03:09:27Дата пометки : UTC 2013-01-20 03:09:28

АудиоИдентификатор : 2Формат : AACФормат/Информация : Advanced Audio CodecПрофиль формата : LCИдентификатор кодека : 40Продолжительность : 45 м.Продолжительность оригинала : 45 м.Вид битрейта : ПеременныйБитрейт : 125 Кбит/секМаксимальный битрейт : 246 Кбит/секКаналы : 2 каналаРасположение каналов : Front: L RЧастота : 44,1 КГцМетод сжатия : С потерямиРазмер потока : 40,5 Мбайт (22%)Размер потока оригинала : 40,5 Мбайт (22%)Язык : EnglishДата кодирования : UTC 2013-01-20 03:09:29Дата пометки : UTC 2013-01-20 03:09:29


Трекер:  [ 22-Мар-2013 16:42 ]

  

Скачать .torrent

Размер .torrent файла 56 KB


Размер: 18.26 GB
Хэш (hash) релиза: b172d5a57f862fc732b3120aa9d1cc78eae88eca

Еще никто не оставлял запись к записи скачать торрент [SERIAL] Менталист Mentalist . Будь первым!

!Обратная связь