Télécharger Part 2 | Nissan Almera N16 Repair 2005 | Figment [v 1.1.5] (2017) PC | RePack от SpaceX

Скачать через торрент [SERIAL] Мотель Бейтса Bates Motel бесплатно русская версия torrent активатор

Статистика раздачи
Размер:  147 MB   |    Зарегистрирован:  5 лет 3 месяца   |    .torrent скачан:  31 раз   |   
Раздают:  1  
   
загрузка...
 
Автор Сообщение

Galfimbul

avatar Galfimbul


Мотель Бейтса / Bates Motel

Год выпуска: 2013
Страна: США
Жанр: ужасы, триллер, детектив
Продолжительность: 00:47:56
Перевод: Профессиональный (многоголосый, закадровый) NewStudio
Русские субтитры: нет
Режиссер: Такер Гейтс
В ролях: Кэролайн Мэтьюз, Вера Фармига, Фредди Хаймор, Джер Бернс, Мерседес Де Ла Зерда, Мэтт Эллис, Кончита Кэмпбелл, Майк Фогель, Нестор Карбонелл, У. Эрл Браун, Оливия Кук, Эммалин Эстрада, Ричард Хэрмон, Никола Пельтц, Дженна Романин, Макс Тириот, Киган Коннор Трейси, Бриттни Уилсон, Алийа О’Брайен, Александр Кэлверт и др.

Описание: Шоу от создателей "Остаться в живых", снятое по мотивам культового фильма Альфреда Хичкока «Психо» 1960 года и расскажет о жизни Нормана Бейтса и его матери Нормы до событий, рассказанных в первом фильме. В небольшом городке Грэдивилл, штат Пенсильвания, есть мотель Бейтс. Это местечко — по сути ферма, на территории которой семейка Бейтсов создали самый страшный парк атракционов на тему Хэллоуина в стране. Есть там и лабиринт из стеблей кукурузы, и механические монстры, искусственные привидения, а в шоу задействованно много актеров театрально рубящих и убивающих друг друга. Но в один прекрасный день ужас становится смертельной реальностью, когда один сотрудник оказывается убит во время шоу… Парк закрывают, проходит время. Однажды его вновь открывают и когда парк наполняется народом происходит повторение трагедии, но уже в других масштабах…


Качество: HDTVRip
Формат: MP4
Видео кодек: H.264
Аудио кодек: AAC
Видео: H264, 480x272, (16:9), 360 kbps, 23.976 fps
Аудио: AAC, 64 kbps, 48.0 kHz, 2 ch
Озвучка: Александр Дасевич, Владимир Курдов, Анна Тух
Перевод: Александра Цернант
Подготовка видео: Koss
Работа со звуком: Baggio
Постер: Vortex
Кодирование для моб. устройств: cruten
01. Сперва мечтаешь, после умираешь / First You Dream, Then You Die
02. Nice Town You Picked, Norma 26 марта
03. What''s Wrong With Norman 2 апреля
04. Trust Me 9 апреля
05. Ocean View 16 апреля
06. The Truth 23 апреля
07. The Man in Number 9 30 апреля
GeneralComplete name : F:\Сериалы\Отконверченные\Мотель Бейтса_Bates Motel.NewStudio\Bates Motel [Season №01] [2013] [NewStudio]\Bates Motel.s01e01.2013.HDTVRip.NewStudio.mp4Format : MPEG-4Format profile : Base MediaCodec ID : isomFile size : 147 MiBDuration : 47mn 56sOverall bit rate mode : VariableOverall bit rate : 427 KbpsEncoded date : UTC 2013-03-21 06:00:16Tagged date : UTC 2013-03-21 06:00:16

VideoID : 1Format : AVCFormat/Info : Advanced Video CodecFormat profile : [email protected] settings, CABAC : YesFormat settings, ReFrames : 2 framesCodec ID : avc1Codec ID/Info : Advanced Video CodingDuration : 47mn 56sBit rate : 360 KbpsMaximum bit rate : 1 543 KbpsWidth : 480 pixelsHeight : 272 pixelsDisplay aspect ratio : 16:9Frame rate mode : ConstantFrame rate : 23.976 fpsColor space : YUVChroma subsampling : 4:2:0Bit depth : 8 bitsScan type : ProgressiveBits/(Pixel*Frame) : 0.115Stream size : 123 MiB (84%)Writing library : x264 core 112 r1834 a51816aEncoding settings : cabac=1 / ref=2 / deblock=1:0:0 / analyse=0x3:0x113 / me=hex / subme=6 / psy=1 / psy_rd=1.00:0.00 / mixed_ref=0 / me_range=16 / chroma_me=1 / trellis=0 / 8x8dct=1 / cqm=0 / deadzone=21,11 / fast_pskip=1 / chroma_qp_offset=-2 / threads=2 / sliced_threads=0 / nr=0 / decimate=1 / interlaced=0 / constrained_intra=0 / bframes=3 / b_pyramid=0 / b_adapt=1 / b_bias=0 / direct=3 / weightb=1 / open_gop=0 / weightp=2 / keyint=250 / keyint_min=25 / scenecut=40 / intra_refresh=0 / rc_lookahead=40 / rc=2pass / mbtree=1 / bitrate=360 / ratetol=1.0 / qcomp=0.60 / qpmin=10 / qpmax=51 / qpstep=4 / cplxblur=20.0 / qblur=0.5 / ip_ratio=1.41 / aq=1:1.00Tagged date : UTC 2013-03-21 06:05:58

AudioID : 2Format : AACFormat/Info : Advanced Audio CodecFormat profile : LCCodec ID : 40Duration : 47mn 56sBit rate mode : VariableBit rate : 64.0 KbpsMaximum bit rate : 73.0 KbpsChannel(s) : 2 channelsChannel positions : Front: L RSampling rate : 48.0 KHzCompression mode : LossyDelay relative to video : 42msStream size : 21.9 MiB (15%)Encoded date : UTC 2013-03-21 06:03:11Tagged date : UTC 2013-03-21 06:05:58


Трекер:  [ 22-Мар-2013 16:40 ]

  

Скачать .torrent

Размер .torrent файла 12 KB


Размер: 147 MB
Хэш (hash) релиза: 9d2b5aecada95a4198f3c3afd0d2df2490418ec8

Еще никто не оставлял запись к записи скачать торрент [SERIAL] Мотель Бейтса Bates Motel . Будь первым!

!Обратная связь