Hero Rage [27.05.18] (Esprit Games) (RUS) [L] Подробнее... Залито: 27-03-2018 16:18 (564 просмотра) Hero Rage [27.05.18] (Esprit Games) (RUS) [L] Многопользовательские игры Hero Rage - это история про демонов, героев и легендарный меч Эскалибур. ... Раздают: 0 Качают: 0 Размер: 525MB | Physique : les ... | Tadanobu Asano

Скачать через торрент [SERIAL] Легавый Серии: 1 - 24 из 24 бесплатно русская версия torrent активатор

Статистика раздачи
Размер:  9.09 GB   |    Зарегистрирован:  5 лет 3 месяца   |    .torrent скачан:  60 раз   |   
Раздают:  1  
   
загрузка...
 
Автор Сообщение

damien1990


Легавый / Серии: 1 - 24 из 24

Год выпуска: 2012

Страна:

Жанр: Детектив, криминал
Продолжительность: 00:45:00

Перевод: Не требуется

Русские субтитры: нет

Режиссе : Рустам Уразаев, Сергей Артимович
В ролях: Эдуард Флёров, Михаил Павлик, Николай Козак, Оксана Гуляева, Анастасия Макеева, Елена Коровчук, Анатолий Кот, Игорь Филиппов, Александр Резалин, Михаил Горевой, Борис Щербаков, Геннадий Венгеров, Сергей Варчук, Алексей Дмитриев (II), Игорь Ясулович, Алексей Секирин, Владислав Резник, Михаил Асанкин, Мария Шамшина, Евгений Мундум, Денис Варенов, Максим Важов, Александр Никольский (II), Мария Кунах, Юрий Брешин, Евгения Дмитриева, Елена Полякова, Сослан Фидаров, Олег Новичев, Сергей Шарифуллин, Дмитрий Лавров (III), Сергей Походаев, Евгений Березовский, Вера Смолина, Джамболат Сланов

Описание:1948 год. Бывший фронтовой разведчик, старший лейтенант Юрий Козырев, попавший в плен в последние дни войны и получивший за это срок, выходит из лагеря полностью оправданным и восстановленным в правах. Он едет в свой родной рабочий городок под Москвой, но возвращение не приносит ему большой радости. Юрий узнает, что отец пропал без вести на фронте, мать умерла, а любимая девушка Лариса вышла замуж за другого… На завод, где он до войны работал инженером, с политической статьей его, пусть и полностью реабилитированного, обратно не возьмут. Выбирать не приходится — Юрий устраивается сторожем. И однажды на склад, который Козырев охраняет, бандиты совершают налет. Главным подозреваемым становится Юрий. На него начинается настоящая охота. Он скрывается от милиции и принимает решение первым найти и обезвредить настоящего организатора ограбления. В награду за поимку преступника сам Лаврентий Берия распоряжается назначить Козырева на должность оперуполномоченного уголовного розыска в местное отделение милиции...
Как будут развиваться события, чем заполнятся опасные будни опера, с какими трудностями послевоенного быта придется столкнуться героям фильма и как сложатся их непростые личные отношения – смотрите в новом остросюжетном сериале «Легавый» на НТВ!

Качество: SATRip
Формат: MP4
Видео кодек: Другой MPEG4
Аудио кодек: AAC
Видео: 640х356 (16:9) MPEG-4 Visual, 1 080 Kbps, 25 fps, 0.190 Bits / Pixel
Аудио: ААС, 128 Kbps, 2 ch, 48.0 KHz
GeneralComplete name : F:\ЛЕГАВЫЙ\Legavyi.(01.seriya).2012.SATRip.mp4Format : MPEG-4Format profile : Base MediaCodec ID : isomFile size : 387 MiBDuration : 44mn 40sOverall bit rate : 1 213 KbpsWriting application : Lavf52.95.0

VideoID : 1Format : MPEG-4 VisualFormat profile : [email protected] settings, BVOP : NoFormat settings, QPel : NoFormat settings, GMC : No warppointsFormat settings, Matrix : Default (H.263)Codec ID : 20Duration : 44mn 40sBit rate mode : VariableBit rate : 1 080 KbpsWidth : 640 pixelsHeight : 356 pixelsDisplay aspect ratio : 16:9Frame rate mode : ConstantFrame rate : 25.000 fpsResolution : 8 bitsColorimetry : 4:2:0Scan type : ProgressiveBits/(Pixel*Frame) : 0.190Stream size : 345 MiB (89%)Writing library : Lavc52.109.0

AudioID : 2Format : AACFormat/Info : Advanced Audio CodecFormat version : Version 4Format profile : LCFormat settings, SBR : NoCodec ID : 40Duration : 44mn 40sBit rate mode : VariableBit rate : 128 KbpsChannel(s) : 2 channelsChannel positions : L RSampling rate : 48.0 KHzStream size : 40.9 MiB (11%)


Трекер:  [ 19-Мар-2013 20:47 ]

  

Скачать .torrent

Размер .torrent файла 24 KB


Размер: 9.09 GB
Хэш (hash) релиза: 2dd23b2e201226d3a300a4d8f203179ccf8dbe03

Торренты, похожие на [SERIAL] Легавый Серии: 1 - 24 из 24 скачать торрент

Форум Название Автор Размер S L Добавлен
Видео (Фильмы/Клипы) ·· [SERIAL] Легавый / Серии: 1-15 из 24 (Рустам Уразаев) [2012, детектив, SATRip] [MP4, 320x] Galfimbul 23177417192.16 GB 0 0 1357675320

23:02

8-Янв-13

Еще никто не оставлял запись к записи скачать торрент [SERIAL] Легавый Серии: 1 - 24 из 24 . Будь первым!

!Обратная связь