The Girlfriend Experience | SC-1739 Cameron & Tanner (Bareback) - 720p.mp4 | Moana (2016)

Скачать через торрент [VIDEO] Хорошо быть тихоней The Perks of Being a Wallflower бесплатно русская версия torrent активатор

Статистика раздачи
Размер:  889 MB   |    Зарегистрирован:  5 лет 3 месяца   |    .torrent скачан:  42 раза   |   
Раздают:  1  
   
загрузка...
 
Автор Сообщение

damien1990


Хорошо быть тихоней / The Perks of Being a Wallflower

Год выпуска: 2012
Страна: США
Жанр: драма, мелодрама
Продолжительность: 01:42:40
Перевод: Профессиональный (полное дублирование)
Русские субтитры: нет

Режиссер: Стивен Чбоски / Stephen Chbosk

В ролях: Логан Лерман, Эмма Уотсон, Эзра Миллер, Нина Добрев, Дилан МакДермотт, Кейт Уолш, Пол Радд, Мэй Уитман, Адам Хэгенбуч, Джонни Симмонс

Описание: История о Чарли, ученике старшей школы в Питтсбурге, стеснительном и непопулярном. На наших глазах Чарли взрослеет, меняется круг его общения, меняется его мнение о мире.

Качество: BDRip
Формат: MP4
Видео кодек: XviD
Аудио кодек: AAC
Видео: XviD, 640x360, 16:9, 1 080 Kbps, 23.976 fps
Аудио: AAC, 128 Kbps, 48.0 KHz, 2 ch.
GeneralComplete name : D:\!РИПЫ\Новая папка\The Perks of Being a Wallflower (2012).mp4Format : MPEG-4Format profile : Base Media / Version 2Codec ID : mp42File size : 889 MiBDuration : 1h 42mnOverall bit rate mode : VariableOverall bit rate : 1 210 KbpsEncoded date : UTC 2013-03-17 00:35:34Tagged date : UTC 2013-03-17 00:35:34

VideoID : 201Format : MPEG-4 VisualFormat profile : Advanced [email protected] settings, BVOP : NoFormat settings, QPel : NoFormat settings, GMC : No warppointsFormat settings, Matrix : Default (H.263)Codec ID : 20Duration : 1h 42mnBit rate mode : VariableBit rate : 1 080 KbpsMaximum bit rate : 6 927 KbpsWidth : 640 pixelsHeight : 360 pixelsDisplay aspect ratio : 16:9Frame rate mode : VariableFrame rate : 23.927 fpsOriginal frame rate : 23.976 fpsMinimum frame rate : 0.311 fpsMaximum frame rate : 23.976 fpsColor space : YUVChroma subsampling : 4:2:0Bit depth : 8 bitsScan type : ProgressiveCompression mode : LossyBits/(Pixel*Frame) : 0.196Stream size : 793 MiB (89%)Writing library : XviD 1.2.1 (UTC 2008-12-04)Encoded date : UTC 2013-03-17 00:35:34Tagged date : UTC 2013-03-17 00:36:05

AudioID : 101Format : AACFormat/Info : Advanced Audio CodecFormat profile : LCCodec ID : 40Duration : 1h 42mnBit rate mode : VariableBit rate : 128 KbpsMaximum bit rate : 151 KbpsChannel(s) : 2 channelsChannel positions : Front: L RSampling rate : 48.0 KHzCompression mode : LossyStream size : 94.0 MiB (11%)Encoded date : UTC 2013-03-17 00:36:03Tagged date : UTC 2013-03-17 00:36:05


Трекер:  [ 17-Мар-2013 22:45 ]

  

Скачать .torrent

Размер .torrent файла 18 KB


Размер: 889 MB
Хэш (hash) релиза: 6d6c03b567bd86c4bd344e91016acbf054d05b91

Торренты, похожие на [VIDEO] Хорошо быть тихоней The Perks of Being a Wallflower скачать торрент

Форум Название Автор Размер S L Добавлен
Видео (Фильмы/Клипы) ·· [VIDEO] Хорошо быть тихоней / The Perks of Being a Wallflower (Стивен Чбоски / Stephen Chbosky) [2012, драма, мелодрама, HDRip] [MP4, 480x] Galfimbul 317190699302 MB 0 0 1361722080

19:08

24-Фев-13

Еще никто не оставлял запись к записи скачать торрент [VIDEO] Хорошо быть тихоней The Perks of Being a Wallflower . Будь первым!

!Обратная связь