Animes Gundam Build Divers 1x15 | Yu-mi Jung | Shuttle Love Millennium (Cantonese) - 相愛穿梭千年貳:月光下的交換Shuttle Love Millennium (Cantonese)

Скачать через торрент [VIDEO] Мой парень – псих Silver Linings Playbook бесплатно русская версия torrent активатор

Статистика раздачи
Размер:  1014 MB   |    Зарегистрирован:  5 лет 4 месяца   |    .torrent скачан:  29 раз   |   
Раздают:  1  
   
загрузка...
 
Автор Сообщение

damien1990


Мой парень – псих / Silver Linings Playbook

Год выпуска: 2012
Страна: США
Жанр: драма, мелодрама, комедия
Продолжительность: 01:57:07
Перевод: Профессиональный (многоголосый, закадровый)
Русские субтитры: нет

Режиссер: Дэвид О. Расселл / David O. Russell

В ролях: Брэдли Купер, Дженнифер Лоуренс, Роберт Де Ниро, Джеки Уивер, Крис Такер, Анупам Кхер, Джон Ортиз, Ши Уигхэм, Джулия Стайлз, Пол Херман

Описание: Главная перемена в жизни героя, после того, как жена ему изменяет — что у него диагностируют биполярное расстройство, и он 8 месяцев проводит в психушке. После чего по решению суда не должен с ней встречаться.

Качество: DVDRip
Формат: MP4
Видео кодек: XviD
Аудио кодек: AAC
Видео: XviD, 640x264, 2.40:1, 1 080 Kbps, 25.000 fps
Аудио: AAC, 128 Kbps, 48.0 KHz, 2 ch.
GeneralComplete name : D:\!РИПЫ\Новая папка\Silver Linings Playbook (2012).mp4Format : MPEG-4Format profile : Base Media / Version 2Codec ID : mp42File size : 1 014 MiBDuration : 1h 57mnOverall bit rate mode : VariableOverall bit rate : 1 211 KbpsEncoded date : UTC 2013-03-16 15:37:55Tagged date : UTC 2013-03-16 15:37:55

VideoID : 201Format : MPEG-4 VisualFormat profile : Advanced [email protected] settings, BVOP : NoFormat settings, QPel : NoFormat settings, GMC : No warppointsFormat settings, Matrix : Default (H.263)Codec ID : 20Duration : 1h 57mnBit rate mode : VariableBit rate : 1 080 KbpsMaximum bit rate : 5 457 KbpsWidth : 640 pixelsHeight : 264 pixelsDisplay aspect ratio : 2.40:1Frame rate mode : VariableFrame rate : 24.975 fpsOriginal frame rate : 25.000 fpsMinimum frame rate : 1.471 fpsMaximum frame rate : 25.000 fpsColor space : YUVChroma subsampling : 4:2:0Bit depth : 8 bitsScan type : ProgressiveCompression mode : LossyBits/(Pixel*Frame) : 0.256Stream size : 905 MiB (89%)Writing library : XviD 1.2.1 (UTC 2008-12-04)Encoded date : UTC 2013-03-16 15:37:55Tagged date : UTC 2013-03-16 15:38:31

AudioID : 101Format : AACFormat/Info : Advanced Audio CodecFormat profile : LCCodec ID : 40Duration : 1h 57mnBit rate mode : VariableBit rate : 128 KbpsMaximum bit rate : 166 KbpsChannel(s) : 2 channelsChannel positions : Front: L RSampling rate : 48.0 KHzCompression mode : LossyStream size : 107 MiB (11%)Encoded date : UTC 2013-03-16 15:38:29Tagged date : UTC 2013-03-16 15:38:31


Трекер:  [ 17-Мар-2013 22:43 ]

  

Скачать .torrent

Размер .torrent файла 20 KB


Размер: 1014 MB
Хэш (hash) релиза: 30a44fbb527106144baca8ddf05b258ad6789b77

Еще никто не оставлял запись к записи скачать торрент [VIDEO] Мой парень – псих Silver Linings Playbook . Будь первым!

!Обратная связь