Marvel's Inhumans saison 1 épisode 6 | Download | Télécharger Part 8

Скачать через торрент [VIDEO] Муви 43 Movie 43 бесплатно русская версия torrent активатор

Статистика раздачи
Размер:  805 MB   |    Зарегистрирован:  5 лет 4 месяца   |    .torrent скачан:  51 раз   |   
Раздают:  1  
   
загрузка...
 
Автор Сообщение

damien1990


Муви 43 / Movie 43

Год выпуска: 2013

Страна: США
Жанр: комедия
Продолжительность: 01:39:30
Перевод: Авторский (одноголосый) - Дмитрий Пучков / Goblin
Русские субтитры: нет

Режиссер: Стивен Брилл / Steven Brill, Питер Фаррелли / Peter Farrelly, Боб Оденкирк / Bob Odenkirk
В ролях: Холли Берри, Джерард Батлер, Анна Фэрис, Хью Джекман, Джонни Ноксвил, Кристофер Минц-Плассе, Шонн Уильям Скотт, Эмма Стоун, Кейт Уинслет, Деннис Куэйд, Грег Киннер, Коммон

Описание: 25 cуперзвезд первой величины - в комедийном проекте, который состоит из двух десятков мини-новелл с нескончаемым потоком шуток, гэгов, острот и пародий, о страстях и страстишках человеческих.
Качество: BDRip [BDRip 720p]
Формат: mp4
Видео: 800x432, 24 fps, AVC ~1000 kbps avg, 0.12 bit/pixel
Аудио: 48 kHz, AAC, 2 ch, ~128 kbps
Format : MPEG-4Format profile : Base MediaCodec ID : isomFile size : 805 MiBDuration : 1h 39mnOverall bit rate mode : VariableOverall bit rate : 1 131 KbpsEncoded date : UTC 2013-03-17 16:44:47Tagged date : UTC 2013-03-17 16:44:47

VideoID : 1Format : AVCFormat/Info : Advanced Video CodecFormat profile : [email protected] settings, CABAC : YesFormat settings, ReFrames : 6 framesCodec ID : avc1Codec ID/Info : Advanced Video CodingDuration : 1h 39mnBit rate : 1 000 KbpsMaximum bit rate : 10.4 MbpsWidth : 800 pixelsHeight : 448 pixelsDisplay aspect ratio : 16:9Frame rate mode : ConstantFrame rate : 24.000 fpsColor space : YUVChroma subsampling : 4:2:0Bit depth : 8 bitsScan type : ProgressiveBits/(Pixel*Frame) : 0.116Stream size : 711 MiB (88%)Writing library : x264 core 125 r2200 999b753Encoding settings : cabac=1 / ref=6 / deblock=1:0:0 / analyse=0x3:0x110 / me=umh / subme=9 / psy=1 / psy_rd=1.00:0.00 / mixed_ref=1 / me_range=24 / chroma_me=1 / trellis=1 / 8x8dct=1 / cqm=0 / deadzone=21,11 / fast_pskip=0 / chroma_qp_offset=-2 / threads=6 / lookahead_threads=1 / sliced_threads=0 / nr=0 / decimate=1 / interlaced=0 / bluray_compat=0 / constrained_intra=0 / bframes=6 / b_pyramid=2 / b_adapt=2 / b_bias=0 / direct=3 / weightb=0 / open_gop=0 / weightp=2 / keyint=250 / keyint_min=23 / scenecut=40 / intra_refresh=0 / rc_lookahead=40 / rc=2pass / mbtree=1 / bitrate=1000 / ratetol=1.0 / qcomp=0.60 / qpmin=0 / qpmax=69 / qpstep=4 / cplxblur=20.0 / qblur=0.5 / ip_ratio=1.40 / aq=1:1.00Encoded date : UTC 2013-03-17 16:44:47Tagged date : UTC 2013-03-17 16:46:51

AudioID : 2Format : AACFormat/Info : Advanced Audio CodecFormat profile : LCCodec ID : 40Duration : 1h 39mnBit rate mode : VariableBit rate : 128 KbpsMaximum bit rate : 135 KbpsChannel(s) : 2 channelsChannel positions : Front: L RSampling rate : 48.0 KHzCompression mode : LossyStream size : 91.1 MiB (11%)Encoded date : UTC 2013-03-17 16:46:46Tagged date : UTC 2013-03-17 16:46:51


Трекер:  [ 17-Мар-2013 22:18 ]

  

Скачать .torrent

Размер .torrent файла 16 KB


Размер: 805 MB
Хэш (hash) релиза: 3456668d59df9d677a7169f2cd309f65ae4652b0

Еще никто не оставлял запись к записи скачать торрент [VIDEO] Муви 43 Movie 43 . Будь первым!

!Обратная связь