Télécharger Part 1 | Augenblicke: Gesichter einer Reise (2017) | Ice World

Скачать через торрент [VIDEO] Прометей Prometheus бесплатно русская версия torrent активатор

Статистика раздачи
Размер:  1.33 GB   |    Зарегистрирован:  5 лет 4 месяца   |    .torrent скачан:  49 раз   |   
Раздают:  1  
   
загрузка...
 
Автор Сообщение

L






Страна: США, Великобритания
Жанр: фантастика, триллер, приключения
Год выпуска: 2012
Продолжительность: 02:03:46
Перевод: Профессиональный (дублированный) Blu-ray EUR
Режиссер: Ридли Скотт
В ролях: Нуми Рапас, Майкл Фассбендер, Шарлиз Терон, Идрис Эльба, Гай Пирс, Логан Маршалл-Грин, Шон Харрис, Рейф Сполл, Иман Эллиотт, Бенедикт Вонг, Кейт Дики, Патрик Уилсон, Люси Хатчинсон

В поисках сакрального знания группа ученых отправляется в самые темные и неизведанные чертоги вселенной. Именно там, в отдаленных мирах, находясь на пределе своих умственных и физических возможностей, им предстоит вступить в безжалостную схватку за будущее всего человечества...

Качество: HDRip| Формат: MP4| Видео кодек: XviD| Аудио кодек: AAC | Видео: XviD (1.2.2) 1400kbps 800x336 23.976fps | Аудио: AAC 128kbps 2ch 16bit 48000khz | Исходник: Blu-ray REMUX

Format : MPEG-4
Format profile : Base Media / Version 2
Codec ID : mp42
File size : 1.33 GiB
Duration : 2h 3mn
Overall bit rate mode : Variable
Overall bit rate : 1 538 Kbps
Encoded date : UTC 2012-10-22 05:12:12
Tagged date : UTC 2012-10-22 05:12:12

Video
ID : 201
Format : MPEG-4 Visual
Format profile : Advanced [email protected]
Format settings, BVOP : No
Format settings, QPel : No
Format settings, GMC : No warppoints
Format settings, Matrix : Default (H.263)
Codec ID : 20
Duration : 2h 3mn
Bit rate mode : Variable
Bit rate : 1 408 Kbps
Maximum bit rate : 21.5 Mbps
Width : 800 pixels
Height : 336 pixels
Display aspect ratio : 2.40:1
Frame rate mode : Variable
Frame rate : 23.923 fps
Original frame rate : 23.976 fps
Minimum frame rate : 0.171 fps
Maximum frame rate : 23.976 fps
Color space : YUV
Chroma subsampling : 4:2:0
Bit depth : 8 bits
Scan type : Progressive
Compression mode : Lossy
Bits/(Pixel*Frame) : 0.219
Stream size : 1.22 GiB (92%)
Writing library : XviD 1.2.1 (UTC 2008-12-04)
Encoded date : UTC 2012-10-22 05:12:12
Tagged date : UTC 2012-10-22 05:13:05

Audio
ID : 101
Format : AAC
Format/Info : Advanced Audio Codec
Format profile : LC
Codec ID : 40
Duration : 2h 3mn
Bit rate mode : Variable
Bit rate : 128 Kbps
Maximum bit rate : 191 Kbps
Channel(s) : 2 channels
Channel positions : Front: L R
Sampling rate : 48.0 KHz
Compression mode : Lossy
Stream size : 113 MiB (8%)
Encoded date : UTC 2012-10-22 05:13:02
Tagged date : UTC 2012-10-22 05:13:05


Трекер:  [ 12-Мар-2013 09:41 ]

  

Скачать .torrent

Размер .torrent файла 14 KB


Размер: 1.33 GB
Хэш (hash) релиза: 82828e6e70741790846c90b48fffb0dd79f0712d

Еще никто не оставлял запись к записи скачать торрент [VIDEO] Прометей Prometheus . Будь первым!

!Обратная связь