Birth of a Rich Man (aka. Becoming a Billionaire) | Usagi Drop | Read More ...

Скачать через торрент музыку SkaЧай - Вдоль Стен - 2010, FLAC бесплатно без регистрации torrent

Статистика раздачи
Размер:  234 MB   |    Зарегистрирован:  7 лет 6 месяцев   |    .torrent скачан:  99 раз   |   
Раздают:  1  
   
загрузка...
 
Автор Сообщение

tft

avatar tft


SkaЧай - Вдоль Стен

Жанр: Ska, Reggae
Год выпуска диска: 2010
Производитель диска: Россия
Аудио кодек: FLAC
Тип рипа: image+.cue
Битрейт аудио: lossless
Продолжительность: 35:47

Трэклист:
1. Intro [01:55]
2. Игроки [02:07]
3. Вдоль Стен [02:03]
4. Тачка [01:54]
5. Musique [02:40]
6. Dirty Girl [02:22]
7. Солнце [02:49]
8. Рабочий класс [02:35]
9. Adventure train [02:11]
10. Ой Мороз Мороз [01:46]
11. Львиная [02:53]
12. Reggae [03:43]
13. Бабушка [04:04]
14. Маяк off [02:44]

рип и диск мои
Exact Audio Copy V0.99 prebeta 5 from 4. May 2009

EAC extraction logfile from 28. February 2010, 20:11

SkaЧай / Вдоль Стен

Used drive : HL-DT-STDVDRAM GSA-T50N Adapter: 1 ID: 0

Read mode : Secure
Utilize accurate stream : Yes
Defeat audio cache : Yes
Make use of C2 pointers : No

Read offset correction : 667
Overread into Lead-In and Lead-Out : No
Fill up missing offset samples with silence : Yes
Delete leading and trailing silent blocks : No
Null samples used in CRC calculations : Yes
Used interface : Native Win32 interface for Win NT & 2000

Used output format : User Defined Encoder
Selected bitrate : 768 kBit/s
Quality : High
Add ID3 tag : No
Command line compressor : C:\Program Files\Exact Audio Copy\FLAC\FLAC.EXE
Additional command line options : -8 -V -T "ARTIST=%a" -T "TITLE=%t" -T "ALBUM=%g" -T "DATE=%y" -T "TRACKNUMBER=%n" -T "GENRE=%m" -T "COMMENT=EAC FLAC-8" %s

TOC of the extracted CD

Track | Start | Length | Start sector | End sector
---------------------------------------------------------
1 | 0:00.00 | 1:57.33 | 0 | 8807
2 | 1:57.33 | 2:09.18 | 8808 | 18500
3 | 4:06.51 | 2:05.01 | 18501 | 27876
4 | 6:11.52 | 1:56.32 | 27877 | 36608
5 | 8:08.09 | 2:42.05 | 36609 | 48763
6 | 10:50.14 | 2:24.21 | 48764 | 59584
7 | 13:14.35 | 2:50.64 | 59585 | 72398
8 | 16:05.24 | 2:37.11 | 72399 | 84184
9 | 18:42.35 | 2:12.58 | 84185 | 94142
10 | 20:55.18 | 1:48.26 | 94143 | 102268
11 | 22:43.44 | 2:54.56 | 102269 | 115374
12 | 25:38.25 | 3:45.14 | 115375 | 132263
13 | 29:23.39 | 4:05.74 | 132264 | 150712
14 | 33:29.38 | 2:43.49 | 150713 | 162986

Range status and errors

Selected range

Filename F:\Music Lossless\Ska\SkaЧай - 2010 - Вдоль Стен\SkaЧай - Вдоль Стен.wav

Peak level 96.0 %
Range quality 100.0 %
Test CRC 89ACC615
Copy CRC 89ACC615
Copy OK

No errors occurred

End of status report
AUDIOCHECKER v2.0 beta (build 457) - by Dester - [email protected]
~~~~~~~~~~~~~~~~~~~~~~~~~~~~~~~~~~
-=== DO NOT EDIT THIS FILE! ===-

Path: ...\SkaЧай - 2010 - Вдоль Стен

1 -=- SkaЧай - Вдоль Стен.flac -=- CDDA (100%)

194481860
REM GENRE Ska
REM DATE 2010
REM DISCID B5087D0E
REM COMMENT "ExactAudioCopy v0.99pb5"
PERFORMER "SkaЧай"
TITLE "Вдоль Стен"
FILE "SkaЧай - Вдоль Стен.flac" WAVE
TRACK 01 AUDIO
TITLE "Intro"
PERFORMER "SkaЧай"
FLAGS DCP
INDEX 01 00:00:00
TRACK 02 AUDIO
TITLE "Игроки"
PERFORMER "SkaЧай"
FLAGS DCP
INDEX 01 01:57:33
TRACK 03 AUDIO
TITLE "Вдоль Стен"
PERFORMER "SkaЧай"
FLAGS DCP
INDEX 00 04:06:29
INDEX 01 04:06:51
TRACK 04 AUDIO
TITLE "Тачка"
PERFORMER "SkaЧай"
FLAGS DCP
INDEX 00 06:11:29
INDEX 01 06:11:52
TRACK 05 AUDIO
TITLE "Musique"
PERFORMER "SkaЧай"
FLAGS DCP
INDEX 00 08:06:09
INDEX 01 08:08:09
TRACK 06 AUDIO
TITLE "Dirty Girl"
PERFORMER "SkaЧай"
FLAGS DCP
INDEX 00 10:48:14
INDEX 01 10:50:14
TRACK 07 AUDIO
TITLE "Солнце"
PERFORMER "SkaЧай"
FLAGS DCP
INDEX 00 13:12:35
INDEX 01 13:14:35
TRACK 08 AUDIO
TITLE "Рабочий класс"
PERFORMER "SkaЧай"
FLAGS DCP
INDEX 00 16:03:24
INDEX 01 16:05:24
TRACK 09 AUDIO
TITLE "Adventure train"
PERFORMER "SkaЧай"
FLAGS DCP
INDEX 00 18:41:24
INDEX 01 18:42:35
TRACK 10 AUDIO
TITLE "Ой Мороз Мороз"
PERFORMER "SkaЧай"
FLAGS DCP
INDEX 00 20:54:62
INDEX 01 20:55:18
TRACK 11 AUDIO
TITLE "Львиная"
PERFORMER "SkaЧай"
FLAGS DCP
INDEX 00 22:41:44
INDEX 01 22:43:44
TRACK 12 AUDIO
TITLE "Reggae"
PERFORMER "SkaЧай"
FLAGS DCP
INDEX 00 25:36:44
INDEX 01 25:38:25
TRACK 13 AUDIO
TITLE "Бабушка"
PERFORMER "SkaЧай"
FLAGS DCP
INDEX 00 29:21:39
INDEX 01 29:23:39
TRACK 14 AUDIO
TITLE "Маяк off"
PERFORMER "SkaЧай"
FLAGS DCP
INDEX 00 33:27:38
INDEX 01 33:29:38


Трекер:  [ 22-Дек-2010 00:20 ]

  

Скачать .torrent

Размер .torrent файла 19 KB


Размер: 234 MB
Хэш (hash) релиза: 15c879064f8c220ceef507907fefafc9e4d858c9

Baby

зачотно (sun)

Хотите добавить комментарий к записи скачать торрент SkaЧай - Вдоль Стен - 2010, FLAC

!Обратная связь