Victorious | Herramientas | Brianna Hildebrand

Скачать через торрент Звёздные Войны: Войны Клонов Star Wars: The Clone Wars бесплатно русская версия torrent активатор

Статистика раздачи
Размер:  9.65 GB   |    Зарегистрирован:  5 лет 4 месяца   |    .torrent скачан:  108 раз   |   
Раздают:  1  
   
загрузка...
 
Автор Сообщение

L


Звёздные Войны: Войны Клонов / Star Wars: The Clone Wars

Год выпуска: 2008

Страна: США
Жанр: Космическая фантастика / фэнтези
Продолжительность: 00:22:00
Перевод: Профессиональный (многоголосый, закадровый) LostFilm
Русские субтитры: нет
Режиссер: Dave Filoni, Dave Bullock, Brian Kalin O''Connell и др.
В ролях: Tom Kane, Dee Bradley Baker, Matt Lanter, Ashley Eckstein, James Arnold Taylor, Ian Abercrombie, Corey Burton, Matthew Wood и др.
Описание: Словосочетание «Войны Клонов» впервые прозвучало в Звёздных Войнах больше тридцати лет назад, в IV эпизоде «Новая Надежда». С тех пор фанаты строили догадки и предположения, но всё встало на свои места лишь с выходом II эпизода. А в «Мести Ситхов» всё уже закончилось. Что же происходило между II и III эпизодами величайшей саги? Что делали любимые персонажи целых 3 года? Об этом нам расскажут новые «Войны Клонов», мультсериал по великой и вечно молодой вселенной «Звёздных Войн».
Качество: HDTVRip
Формат: MP4
Видео кодек: H.264
Аудио кодек: AAC
Видео: MPEG4 Video (H264); 480x272 (16:9); 449 kbps; 24.00fps
Аудио: AAC 44100Hz stereo 126 kbps
ОбщееПолное имя : ...\Star Wars The Clone Wars [season 1, 480x272, mp4]\Star.Wars.The.Clone.Wars.s01e01.mp4Формат : MPEG-4Профиль формата : Base Media / Version 2Идентификатор кодека : mp42Размер файла : 90,8 МбайтПродолжительность : 22 м.Режим общего битрейта : ПеременныйОбщий поток : 577 Кбит/секДата кодирования : UTC 2012-11-30 15:11:07Дата пометки : UTC 2012-11-30 15:11:08Программа кодирования : mp4creator 1.4.4

ВидеоИдентификатор : 1Формат : AVCФормат/Информация : Advanced Video CodecПрофиль формата : [email protected]Параметр CABAC формата : НетПараметр ReFrames формата : 2 кадраИдентификатор кодека : avc1Идентификатор кодека/Информация : Advanced Video CodingПродолжительность : 22 м.Вид битрейта : ПеременныйБитрейт : 450 Кбит/секШирина : 480 пикселейВысота : 272 пикселяСоотношение сторон : 16:9Режим частоты кадров : ПостоянныйЧастота кадров : 24,000 кадра/секЦветовое пространство : YUVСубдискретизация насыщенности : 4:2:0Битовая глубина : 8 битТип развёртки : ПрогрессивнаяБит/(Пиксели*Кадры) : 0.143Размер потока : 70,7 Мбайт (78%)Язык : EnglishДата кодирования : UTC 2012-11-30 15:11:07Дата пометки : UTC 2012-11-30 15:11:07

АудиоИдентификатор : 2Формат : AACФормат/Информация : Advanced Audio CodecПрофиль формата : LCИдентификатор кодека : 40Продолжительность : 21 м.Продолжительность оригинала : 21 м.Вид битрейта : ПеременныйБитрейт : 126 Кбит/секМаксимальный битрейт : 166 Кбит/секКаналы : 2 каналаРасположение каналов : Front: L RЧастота : 44,1 КГцМетод сжатия : С потерямиРазмер потока : 19,8 Мбайт (22%)Размер потока оригинала : 19,8 Мбайт (22%)Язык : EnglishДата кодирования : UTC 2012-11-30 15:11:08Дата пометки : UTC 2012-11-30 15:11:08
1). Засада (Ambush).
2). Наступление "Зловещего" (Rising Malevolence).
3). Тень "Зловещего" (Shadow Malevolence).
4). Гибель "Зловещего" (Destroy Malevolence).
5). Салаги (Rookies).
6). Утрата дроида (Downfall of a Droid).
7). Дуэль дроидов (Duel of the Droids).
8). Джедая бомбад (Bombad Jedi).
9). Маска Тьмы (Cloak of Darkness).
10). Логово Гривуса (Lair of Grievous).
11). Дуку в плену (Dooku Captured).
12). Генерал Гунган (The Gungan General).
13). Авария джедаев (Jedi Crash).
14). Защитники мира (Defenders of Peace).
15). Посягательство (Trespass).
16). Скрытый враг (The Hidden Enemy).
17). Вирус "Синий Призрак" (Blue Shadow Virus).
18). Тайна тысячи лун (Mystery of a Thousand Moons).
19). Битва при Рилоте (Storm Over Ryloth).
20). Невинные жертвы Рилота (Innocents of Ryloth).
21). Освобождение Рилота (Liberty on Ryloth).
22). Захват заложников (Hostage Crisis).
1-2). Кража Голокрона; Корабль обречённых (Holocron Heist; Cargo of Doom).
3). Дети Силы (Children of the Force).
4). Шпион Сената (Senate Spy).
5). Высадка на Пойнт-Рейн (Landing at Point Rain).
6). Оружейная фабрика (Weapons Factory).
7). Наследие террора (Legacy of Terror).
8). Контроль разума (Brain Invaders).
9). Происки Гривуса (Grievous Intrigue).
10). Дезертир (The Deserter).
11). Потерянный меч (Lightsaber Lost).
12). Мандалорский заговор (The Mandalore Plot).
13). Искушение (Voyage of Temptation).
14). Герцогиня Мандалора (Duchess of Mandalore).
15). Убийства в Сенате (Senate Murders).
16). Кошки-мышки (Cat and Mouse).
17). Нaёмники (Bounty Hunters).
18). Гад Зилло (The Zillo Beast).
19). Гад Зилло наносит ответный удар (The Zillo Beast Strikes Back).
20). Смертельная ловушка (Death Trap).
21). Ар-Два, лети домой! (R2 Come Home).
22). Смертельная погоня (Lethal Trackdown).
1. Клоны - курсанты (Clone Cadets)
2. Элитные республиканские коммандос (ARC Troopers)
3. Пути снабжения (Supply Lines)
4. Сферы влияния (Sphere of Influence)
5. Коррупция (Corruption)
6. Академия (The Academy)
7. Убийца (Assassin)
8. Коварные планы (Evil Plans)
9. Охота на Зиро (Hunt for Ziro)
10. Герои по обе стороны фронта (Heroes on Both Sides)
11. Стремление к миру (Pursuit of Peace)
12. Ночные сестры (Nightsisters)
13. Чудовище (Monster)
14. Ведьмы Тумана (Witches of the Mist)
15. Властелины (Overlords)
16. Алтарь Мортиса (Altar of Mortis)
17. Призраки Мортиса (Ghosts of Mortis)
18. Цитадель (The Citadel)
19. Ответный удар (Counter Attack)
20. Спасательная операция ''Цитадель'' (Citadel Rescue)
21. Пропавший падаван (Padawan Lost)
22. Охота на вуки (Wookiee Hunt)
1. Война в морских глубинах (Water Wars)
2. Атака гунганов (Gungan Attack)
3. Пленники (Prisoners)
4. Тайный враг (Shadow Warrior)
5. Гуманитарная миссия (Mercy Mission)
6. Дроиды-скитальцы (Nomad Droids)
7. Тьма на Умбаре (Darkness On Umbara)
8. Генерал (The General)
9. План несогласных (Plan Of Dissent)
10. Бойня генерала Крелла (Carnage Of Krell)
11. Похищение (Kidnapped)
12. Рабы Республики (Slaves Of The Republic)
13. Побег из Кадаво (Escape From Kadavo)
14. Друзья познаются в беде (A Friend In Need)
15. Под прикрытием (Deception)
16. Друзья и враги (Friends And Enemies)
17. Куб (The Box)
18. Кризис на Набу (Crisis On Naboo)
19. Резня (Massacre)
20. Награда (Bounty)
21. Братья (Brothers)
22. Месть (Revenge)
1. Возрождение (Revival)
2. Война на два фронта (A War on Two Fronts)
3. Кандидаты (Front Runners)
4. Мягкая война (The Soft War)
5. Переломный момент (Tipping Points)
6. Сбор (The Gathering)
7. Проба сил (A Test of Strength)
8. Спасти любой ценой (Bound for Rescue)
9. Вынужденный союз (A Necessary Bond)
10. Секретное оружие (Secret Weapons)
11. В пустыне в солнечный денёк (A Sunny Day in the Void)
12. Пропавший без вести (Missing in Action)
13. Назад дороги нет (Point of No Return)
14. Путь к власти (Eminence)
15. Скрытые мотивы (Shades of Reason)
16. Непокорный (The Lawless)
17. Диверсия (Sabotage)
18. Джедай, который слишком много знал (The Jedi Who Knew Too Much)
19. В погоне за джедаем (To Catch a Jedi)
20. Ошибка правосудия (The Wrong Jedi)
Не забываем нажать на "Спасибо"!


Трекер:  [ 09-Мар-2013 10:14 ]

  

Скачать .torrent

Размер .torrent файла 37 KB


Размер: 9.65 GB
Хэш (hash) релиза: 0eac9003950857746009cc8d5ddfbad2e5ca5341

Еще никто не оставлял запись к записи скачать торрент Звёздные Войны: Войны Клонов Star Wars: The Clone Wars . Будь первым!

!Обратная связь