Knowing Brother Episode 33 | Vol. 21 Ch. 125 - Avin 1 | Ao no Exorcist: Kyoto Fujouou-hen (Blue Exorcist S2) | 720p | BD | Dual Audio

Скачать через торрент [SERIAL] Каприка Caprica бесплатно русская версия torrent активатор

Статистика раздачи
Размер:  3.36 GB   |    Зарегистрирован:  5 лет 4 месяца   |    .torrent скачан:  41 раз   |   
Раздают:  1  
   
загрузка...
 
Автор Сообщение

Galfimbul

avatar Galfimbul


Каприка / Caprica

Год выпуска: 2010

Страна: США
Жанр: Научная фантастика / Драма
Продолжительность: 00:45:00
Перевод: Профессиональный (многоголосый, закадровый, LostFilm)
Русские субтитры: нет
Режиссер: Джеффри Рейнер / Jeffrey Reiner
В ролях: Eric Stoltz, Esai Morales, Paula Malcomson, Alessandra Toreson, Magda Apanowicz, Avan Jogia, Polly Walker и др.
Описание: Каприка. Административный центр Двенадцати Колоний Кобола. Планета, где есть всё - богатство, успех, технологии и развлечения. Планета, которая будет разрушена ровно через 58 лет. Авторы сериала "Звёздный крейсер "Галактика" дают нам возможность увидеть - что же происходило в самом начале, когда Сайлоны были созданы Человеком.
Качество: DVDRip
Формат: MP4
Видео кодек: H.264
Аудио кодек: AAC
Видео: MPEG4 Video (H264); 480x272 (16:9); 449 kbps; 24.00fps
Аудио: AAC 44100Hz stereo 126 kbps

Список серий:
01. Пилот (Pilot)
02. Второе рождение (Rebirth)
03. Узды водопада (The Reins of a Waterfall)
04. Пляски на могиле (Gravedancing)
05. Другое небо (There Is Another Sky)
06. Знай своего врага (Know Thy Enemy)
07. Несовершенство памяти (The Imperfections of Memory)
08. Призраки в машине (Ghosts in the Machine)
09. Конец строки (End of Line)
10. Непобежденный (Unvanquished)
11. Расплата (Retribution)
12. То, что мы скрываем (Things We Lock Away)
13. Подготовительные родовые схватки (False Labor)
14. Отдача (Blowback)
15. Грязееды (The Dirteaters)
16. И возвысятся небеса (The Heavens Will Rise)
17. Да будут драконы! (Here Be Dragons)
18. Апофеоз (Apotheosis)
ОбщееПолное имя : ...\Caprica [480x272, mp4]\Caprica.S01E01.mp4Формат : MPEG-4Профиль формата : Base Media / Version 2Идентификатор кодека : mp42Размер файла : 380 МбайтПродолжительность : 1 ч. 32 м.Режим общего битрейта : ПеременныйОбщий поток : 575 Кбит/секДата кодирования : UTC 2013-02-17 02:39:41Дата пометки : UTC 2013-02-17 02:39:44Программа кодирования : mp4creator 1.4.4

ВидеоИдентификатор : 1Формат : AVCФормат/Информация : Advanced Video CodecПрофиль формата : [email protected]Параметр CABAC формата : НетПараметр ReFrames формата : 2 кадраИдентификатор кодека : avc1Идентификатор кодека/Информация : Advanced Video CodingПродолжительность : 1 ч. 32 м.Вид битрейта : ПеременныйБитрейт : 447 Кбит/секШирина : 480 пикселейВысота : 272 пикселяСоотношение сторон : 16:9Режим частоты кадров : ПостоянныйЧастота кадров : 24,000 кадра/секЦветовое пространство : YUVСубдискретизация насыщенности : 4:2:0Битовая глубина : 8 битТип развёртки : ПрогрессивнаяБит/(Пиксели*Кадры) : 0.143Размер потока : 295 Мбайт (78%)Язык : EnglishДата кодирования : UTC 2013-02-17 02:39:41Дата пометки : UTC 2013-02-17 02:39:43

АудиоИдентификатор : 2Формат : AACФормат/Информация : Advanced Audio CodecПрофиль формата : LCИдентификатор кодека : 40Продолжительность : 1 ч. 32 м.Продолжительность оригинала : 1 ч. 32 м.Вид битрейта : ПеременныйБитрейт : 126 Кбит/секМаксимальный битрейт : 193 Кбит/секКаналы : 2 каналаРасположение каналов : Front: L RЧастота : 44,1 КГцМетод сжатия : С потерямиРазмер потока : 82,9 Мбайт (22%)Размер потока оригинала : 83,0 Мбайт (22%)Язык : EnglishДата кодирования : UTC 2013-02-17 02:39:43Дата пометки : UTC 2013-02-17 02:39:44


Трекер:  [ 24-Фев-2013 19:40 ]

  

Скачать .torrent

Размер .torrent файла 18 KB


Размер: 3.36 GB
Хэш (hash) релиза: b59ab4639c16a3ccae6b76afdcccfaaadc92e025

bot

Топик был перенесен из форума Мобильные устройства в форум КПК

Galfimbul

Хотите добавить комментарий к записи скачать торрент [SERIAL] Каприка Caprica

!Обратная связь