Episode 3 VF HDTV | Hooten The Lady | Bob Maguire

Скачать через торрент [MULT] Мой Маленький Пони: Дружба это Магия Дружба - это Чудо бесплатно русская версия torrent активатор

Статистика раздачи
Размер:  1.86 GB   |    Зарегистрирован:  5 лет 4 месяца   |    .torrent скачан:  89 раз   |   
Раздают:  1  
   
загрузка...
 
Автор Сообщение

Galfimbul

avatar Galfimbul


Мой Маленький Пони: Дружба это Магия 3 / My Little Pony: Friendship Is Magic 3

Год выпуска: 2012г.
Продолжительность: 13 эп. по 22 мин.
Производство: США, Канада
Жанр: фэнтези, комедия, семейный
Перевод: Субтитры
Хардсаб: Да
Субтитры: Русские субтитры:
от anopensmile (1 - 9)
от sunnysubs (10 - 13)
Дата мировой премьеры: 10 ноября 2012
Режиссер: Джейсон Тиссен / Jayson Thiessen
Роли озвучивали: Тара Стронг, Эшлин Бол, Клэр Корлетт, Мишель Кребер, Андреа Либман и другие
Описание мультфильма:
Главная героиня — единорог по имени Твайлайт Спаркл, ученица Принцессы Селестии, которая всё время сидела за книгами и не желала ни с кем общаться. Видя, как героиня зарылась с головой в учёбу, Принцесса даёт ей задание найти друзей и посылает Твайлайт и её ассистента, дракона по имени Спайк, в Понивилль. Там она встречает разных пони, своих новых друзей: задиристую Рейнбоу Деш, элегантную Рарити, трудолюбивую Эплджек, робкую Флатершай, и гиперактивную Пинки Пай. Вместе они исследуют город, решают проблемы жителей и находят новых друзей. Каждый день Твайлайт узнаёт что-то новое о дружбе и сообщает об этом Селестии.

Рейтинг:

Качество: WEB-DLRip| Формат: MP4 | Видео кодек: XviD | Аудио кодек: AAC
Видео: 640x360 (AR 16:9), 800 Kbps, 23.976 fps | Аудио: 128 Kbps, 48.0 KHz, 2ch, Stereo
01. The Crystal Empire, part 1
02. The Crystal Empire, part 2
03. Too Many Pinkie Pies
04. One Bad Apple
05. Magic Duel
06. Sleepless in Ponyville
07. Wonderbolt Academy
08. Apple Family Reunion
09. Spike at Your Service
10. Keep Calm and Flutter On
11. Just For Sidekicks
12. Games Ponies Play
13. Magical Mystery Cure
General
Complete name : G:\Encode\MLP-FiM S03E13.mp4
Format : MPEG-4
Format profile : Base Media / Version 2
Codec ID : mp42
File size : 146 MiB
Duration : 22mn 3s
Overall bit rate mode : Variable
Overall bit rate : 928 Kbps
Encoded date : UTC 2013-02-18 02:50:02
Tagged date : UTC 2013-02-18 02:50:02

Video
ID : 201
Format : MPEG-4 Visual
Format profile : Advanced [email protected]
Format settings, BVOP : No
Format settings, QPel : No
Format settings, GMC : No warppoints
Format settings, Matrix : Default (H.263)
Codec ID : 20
Duration : 22mn 3s
Bit rate mode : Variable
Bit rate : 798 Kbps
Maximum bit rate : 2 793 Kbps
Width : 640 pixels
Height : 360 pixels
Display aspect ratio : 16:9
Frame rate mode : Constant
Frame rate : 23.976 fps
Color space : YUV
Chroma subsampling : 4:2:0
Bit depth : 8 bits
Scan type : Progressive
Compression mode : Lossy
Bits/(Pixel*Frame) : 0.144
Stream size : 126 MiB (86%)
Writing library : XviD 61
Encoded date : UTC 2013-02-18 02:50:02
Tagged date : UTC 2013-02-18 02:50:13

Audio
ID : 101
Format : AAC
Format/Info : Advanced Audio Codec
Format profile : LC
Codec ID : 40
Duration : 22mn 3s
Bit rate mode : Variable
Bit rate : 128 Kbps
Maximum bit rate : 143 Kbps
Channel(s) : 2 channels
Channel positions : Front: L R
Sampling rate : 48.0 KHz
Compression mode : Lossy
Stream size : 20.2 MiB (14%)
Encoded date : UTC 2013-02-18 02:50:12
Tagged date : UTC 2013-02-18 02:50:13


Трекер:  [ 24-Фев-2013 19:41 ]

  

Скачать .torrent

Размер .torrent файла 20 KB


Размер: 1.86 GB
Хэш (hash) релиза: 55a9ca14cfac2792e0083bf4520458b73de2d31c

Торренты, похожие на [MULT] Мой Маленький Пони: Дружба это Магия Дружба - это Чудо скачать торрент

Форум Название Автор Размер S L Добавлен
Видео (Фильмы/Клипы) ·· [MULT] Мой Маленький Пони: Дружба это Магия / Дружба - это Чудо / My Little Pony: Friendship is Magic / Сезон: 3 / Серии: 1-5 из 13 (Джейсон Тиссен / Jayson Thiessen) [2012 г., фэнтези, комедия, семейный, WEB-DLRip] [MP4, 800x] [Субтитры] Galfimbul 11370815821.06 GB 0 0 1356341940

12:39

24-Дек-12

bot

Топик был перенесен из форума Мобильные устройства в форум КПК

Galfimbul

Хотите добавить комментарий к записи скачать торрент [MULT] Мой Маленький Пони: Дружба это Магия Дружба - это Чудо

!Обратная связь