Undercover - Une histoire vraie (2018) streaming HD | Mysterious Ways | Crueldad Necesaria

Скачать через торрент [SERIAL] Контакт Связь бесплатно русская версия torrent активатор

Статистика раздачи
Размер:  2.9 GB   |    Зарегистрирован:  5 лет 4 месяца   |    .torrent скачан:  31 раз   |   
Раздают:  1  
   
загрузка...
 
Автор Сообщение

Galfimbul

avatar Galfimbul


Контакт / Touch

Год выпуска: 2012

Страна: США
Жанр: Драма
Продолжительность: ~45 мин.
Перевод: Многоголосый закадровый (LostFilm.TV)
Русские субтитры: нет
Режиссер: Френсис Лоуренс
В ролях: Кифер Сазерленд, Карен Шенас-Дэвид, Девид де Латур, Джуди Эчавез, Масси Фурлан, Шак Гача, Дэнни Гловер, Ник Ходэли, Марк Иванир
Описание: Он потерял любимую жену, и остался один воспитывать своего сына - аутиста. Все свое время он тратит на то, чтобы понять особое мышление своего сына и наладить с ним контакт, но до сих пор его попытки не приносили должного успеха, его ребенок оставался таким же молчаливым и замкнутым. Но в один момент Мартин понимает что его сын обладает особым даром гения - он предвидит события будущего, точки в которых действия одного человека могут подействовать на жизни других. Но выражает он свои видения в цифрах, расшифровать которые и предстоит его отцу, помешав тем самым случиться трагедии.
Качество: WEB-DLRip
Формат: MP4
Видео кодек: H.264
Аудио кодек: AAC
Видео: MPEG4 Video (H264); 480x272 (16:9); 455kbps; 25.00fps
Аудио: AAC 44100Hz stereo 1411kbps
GeneralComplete name : ...\Touch.[season 1, 480x272, mp4]\Touch.S01E01.pilot.mp4Format : MPEG-4Format profile : Base Media / Version 2Codec ID : mp42File size : 210 MiBDuration : 50mn 22sOverall bit rate : 583 KbpsEncoded date : UTC 2012-02-04 20:02:01Tagged date : UTC 2012-02-04 20:03:22Writing application : mp4creator 1.4.4

VideoID : 1Format : AVCFormat/Info : Advanced Video CodecFormat profile : [email protected] settings, CABAC : NoFormat settings, ReFrames : 2 framesCodec ID : avc1Codec ID/Info : Advanced Video CodingDuration : 50mn 22sBit rate mode : VariableBit rate : 455 KbpsWidth : 480 pixelsHeight : 272 pixelsDisplay aspect ratio : 16:9Frame rate mode : ConstantFrame rate : 25.000 fpsColor space : YUVChroma subsampling : 4:2:0Bit depth : 8 bitsScan type : ProgressiveBits/(Pixel*Frame) : 0.139Stream size : 164 MiB (78%)Language : EnglishEncoded date : UTC 2012-02-04 20:02:01Tagged date : UTC 2012-02-04 20:02:51

AudioID : 2Format : AACFormat/Info : Advanced Audio CodecFormat profile : LCCodec ID : 40Duration : 50mn 21sBit rate mode : VariableBit rate : 126 KbpsMaximum bit rate : 203 KbpsChannel(s) : 2 channelsChannel positions : Front: L RSampling rate : 44.1 KHzCompression mode : LossyStream size : 45.2 MiB (22%)Language : EnglishEncoded date : UTC 2012-02-04 20:03:03Tagged date : UTC 2012-02-04 20:03:22
1 сезон:

01) Пилотная серия / Pilot
02) 1+1=3 / 1+1=3
03) В цифрах спасение / Safety in Numbers
04) Нити воздушного змея / Kite Strings
05) Переплетения / Entanglement
06) Потерять и найти / Lost & Found
07) Расцвет ноосферы / Noosphere Rising
08) Зона отчуждения / Zone of Exclusion
09) Музыка сфер / Music of the Spheres
10) Мозаика / Tessellations
11) Водоворот, Часть 1 / Gyre, Part 1
12) Водоворот, Часть 2 / Gyre, Part 2
13) Путь еще не выбран / The Road Not Taken

2 сезон:

01) Горизонт событий / Event Horizon
02) Ближе / Closer
03)Враг моего врага / Enemy of My Enemy


Трекер:  [ 24-Фев-2013 19:13 ]

  

Скачать .torrent

Размер .torrent файла 16 KB


Размер: 2.9 GB
Хэш (hash) релиза: e2a1b7daf7d2a0ef5b9a6c88e3d2596b1047ecf6

bot

Топик был перенесен из форума Мобильные устройства в форум КПК

Galfimbul

Хотите добавить комментарий к записи скачать торрент [SERIAL] Контакт Связь

!Обратная связь