Новости | Андрей Круз, Андрей Царёв - Земли лишних. Андрей Новиков 1. Два билета туда (2018) МР3 | Nasumina Felix Mp3

Скачать через торрент [SERIAL] Управление гневом Anger Management бесплатно русская версия torrent активатор

Статистика раздачи
Размер:  1.39 GB   |    Зарегистрирован:  5 лет 4 месяца   |    .torrent скачан:  48 раз   |   
Раздают:  1  
   
загрузка...
 
Автор Сообщение

Galfimbul

avatar Galfimbul


Управление гневом / Anger Management

Год выпуска: 2012

Страна: США
Жанр: Комедия
Продолжительность: 00:21:30
Перевод: Профессиональный (многоголосый, закадровый, LostFilm)
Русские субтитры: нет
Режиссер: Andy Cadiff, Gerry Cohen, Bob Koherr, Rob Schiller, Sam Simon
В ролях: Charlie Sheen, Selma Blair, Daniela Bobadilla, Noureen DeWulf, Michael Arden, Barry Corbin и другие.
Описание: Чарли, перед возвращением в стан своей бейсбольной команды прошел курс управления гневом, прежде чем доказать себе и окружающим, что он настоящий лидер команды. В результате он приводит команду к победе, после чего покидает ее. Выходит, пока Чарли борется со своим гневом, в его жизни процветает хаос. Всё осложняется его отношениями с собственным терапевтом и лучшим другом, бывшей женой, чьи позитивные взгляды на будущее, но при этом плохой выбор мужчин, расстраивают Чарли и их 13-летнюю дочь, имеющую психические расстройства. Сериал отчасти основан на комедии 2003 года Управление гневом с Джеком Николсоном и Адамом Сэндлером в главных ролях. В фильме речь идет о мужчине, которого из-за излишней агрессивности отправляют на восстановительную программу, где учат управлять своими негативными эмоциями.
Качество: HDTVRip
Формат: MP4
Видео кодек: H.264
Аудио кодек: AAC
Видео: MPEG4 Video (H264); 480x272 (16:9); 449 kbps; 24.00fps
Аудио: AAC 44100Hz stereo 126 kbps
ОбщееПолное имя : ...\Anger Management [480x272, mp4]\Anger Management [season 1, 480x272, mp4]\Anger.Management.S01E01.mp4Формат : MPEG-4Профиль формата : Base Media / Version 2Идентификатор кодека : mp42Размер файла : 89,0 МбайтПродолжительность : 21 м.Режим общего битрейта : ПеременныйОбщий поток : 575 Кбит/секДата кодирования : UTC 2013-01-22 04:37:30Дата пометки : UTC 2013-01-22 04:37:30Программа кодирования : mp4creator 1.4.4

ВидеоИдентификатор : 1Формат : AVCФормат/Информация : Advanced Video CodecПрофиль формата : [email protected]Параметр CABAC формата : НетПараметр ReFrames формата : 2 кадраИдентификатор кодека : avc1Идентификатор кодека/Информация : Advanced Video CodingПродолжительность : 21 м.Вид битрейта : ПеременныйБитрейт : 447 Кбит/секШирина : 480 пикселейВысота : 272 пикселяСоотношение сторон : 16:9Режим частоты кадров : ПостоянныйЧастота кадров : 24,000 кадра/секЦветовое пространство : YUVСубдискретизация насыщенности : 4:2:0Битовая глубина : 8 битТип развёртки : ПрогрессивнаяБит/(Пиксели*Кадры) : 0.143Размер потока : 69,2 Мбайт (78%)Язык : EnglishДата кодирования : UTC 2013-01-22 04:37:30Дата пометки : UTC 2013-01-22 04:37:30

АудиоИдентификатор : 2Формат : AACФормат/Информация : Advanced Audio CodecПрофиль формата : LCИдентификатор кодека : 40Продолжительность : 21 м.Продолжительность оригинала : 21 м.Вид битрейта : ПеременныйБитрейт : 126 Кбит/секМаксимальный битрейт : 242 Кбит/секКаналы : 2 каналаРасположение каналов : Front: L RЧастота : 44,1 КГцМетод сжатия : С потерямиРазмер потока : 19,4 Мбайт (22%)Размер потока оригинала : 19,4 Мбайт (22%)Язык : EnglishДата кодирования : UTC 2013-01-22 04:37:30Дата пометки : UTC 2013-01-22 04:37:30
1 сезон:
1. Чарли снова проходит терапию (Charlie Goes Back to Therapy)
2. Чарли и "Мымра удачи" (Charlie and the Slumpbuster)
3. Чарли проводит депривацию сна (Charlie Tries Sleep Deprivation)
4. Чарли и Кейт сражаются за пациента (Charlie and Kate Battle Over a Patient)
5. Чарли доказывает, что терапия - штука честная (Charlie Tries to Prove Therapy Is Legit)
6. Чарли кадрит пациентку Кейт (Charlie Dates Kate's Patient)
7. Пациент Чарли выходит из тюрьмы (Charlie's Patient Gets Out of Jail)
8. Чарли выгоняет пациента (Charlie Outs a Patient)
9. К Чарли нагрянул папочка (Charlie's Dad Visits)
10. Чарли потянуло на романтику (Charlie Gets Romantic)

2 сезон:
1. Как Чарли психанул на предрожденчике (Charlie Loses it at a Baby Shower)
2. Как у папы Чарли начала ехать крыша (Charlie's Dad Starts to Lose It)
3. Чарли встречает бывшую пациентку (Charlie and the Ex-Patient)
4. Папа Чарли срывается (Charlie's Dad Breaks Bad)
5. Чарли и Джен снова вместе (Charlie & Jen Together Again)
6. Чарли и иллюзорная терапия (Charlie and Deception Therapy)


Трекер:  [ 24-Фев-2013 19:13 ]

  

Скачать .torrent

Размер .torrent файла 16 KB


Размер: 1.39 GB
Хэш (hash) релиза: 7ed1e161d005aa924fd458b2f781a5c1a627d2c6

bot

Топик был перенесен из форума Мобильные устройства в форум КПК

Galfimbul

Хотите добавить комментарий к записи скачать торрент [SERIAL] Управление гневом Anger Management

!Обратная связь