Chapter 0 : One shot - Pilot | Original Broadway Cast of Hamilton | Tracklist Download Links

Скачать через торрент [SERIAL] Перевозчик Transporter бесплатно русская версия torrent активатор

Статистика раздачи
Размер:  1.09 GB   |    Зарегистрирован:  5 лет 4 месяца   |    .torrent скачан:  32 раза   |   
Раздают:  1  
   
загрузка...
 
Автор Сообщение

Galfimbul

avatar Galfimbul


Перевозчик / Transporter

Год выпуска: 2013

Страна: США, Франция, Германия, Великобритания, Канада
Жанр: Криминальный, Боевик
Продолжительность: 00:45:00
Перевод: Профессиональный (многоголосый, закадровый, LostFilm)
Русские субтитры: нет
Режиссер: Stephen Williams
В ролях: Chris Vance, Andrea Osvárt, François Berléand, Delphine Chanéac и другие.
Описание: Сериал «Перевозчик» продолжает рассказ о приключениях бывшего спецназовца Фрэнка Мартина, героя серии экшен-фильмов «Перевозчик» Люка Бессона. Джейсона Стэтхэма в роли главного героя сменил актер Крис Вэнс.
Фрэнк Мартин – профессиональный курьер, который способен доставить что угодно, куда угодно и кому угодно. Три четких правила, которые герой выработал для себя, гласят: «Никогда не менять условий сделки», «Никогда не открывать груз» и «Не знать ничьих имен». Три правила, которые Фрэнк постоянно нарушает…
Качество: BDRip
Формат: MP4
Видео кодек: H.264
Аудио кодек: AAC
Видео: MPEG4 Video (H264); 480x272 (16:9); 449 kbps; 24.00fps
Аудио: AAC 44100Hz stereo 126 kbps
01 - Дочь генерала (The General's Daughter)
02 - Что посеешь... (Harvest)
03 - Троянская лошадиная сила (Trojan Horsepower)
04 - Расплата (Payback)
05 - Тайник (Dead Drop)
06 - Горячий лед (Hot Ice)
ОбщееПолное имя : C:\Downloads\Transporter [season 1, 480x272, mp4]\Transporter.S01E01.mp4Формат : MPEG-4Профиль формата : Base Media / Version 2Идентификатор кодека : mp42Размер файла : 188 МбайтПродолжительность : 45 м.Режим общего битрейта : ПеременныйОбщий поток : 574 Кбит/секДата кодирования : UTC 2013-01-30 02:29:11Дата пометки : UTC 2013-01-30 02:29:12Программа кодирования : mp4creator 1.4.4

ВидеоИдентификатор : 1Формат : AVCФормат/Информация : Advanced Video CodecПрофиль формата : [email protected]Параметр CABAC формата : НетПараметр ReFrames формата : 2 кадраИдентификатор кодека : avc1Идентификатор кодека/Информация : Advanced Video CodingПродолжительность : 45 м.Вид битрейта : ПеременныйБитрейт : 446 Кбит/секШирина : 480 пикселейВысота : 272 пикселяСоотношение сторон : 16:9Режим частоты кадров : ПостоянныйЧастота кадров : 24,000 кадра/секЦветовое пространство : YUVСубдискретизация насыщенности : 4:2:0Битовая глубина : 8 битТип развёртки : ПрогрессивнаяБит/(Пиксели*Кадры) : 0.142Размер потока : 146 Мбайт (78%)Язык : EnglishДата кодирования : UTC 2013-01-30 02:29:11Дата пометки : UTC 2013-01-30 02:29:12

АудиоИдентификатор : 2Формат : AACФормат/Информация : Advanced Audio CodecПрофиль формата : LCИдентификатор кодека : 40Продолжительность : 45 м.Продолжительность оригинала : 45 м.Вид битрейта : ПеременныйБитрейт : 126 Кбит/секМаксимальный битрейт : 205 Кбит/секКаналы : 2 каналаРасположение каналов : Front: L RЧастота : 44,1 КГцМетод сжатия : С потерямиРазмер потока : 41,1 Мбайт (22%)Размер потока оригинала : 41,1 Мбайт (22%)Язык : EnglishДата кодирования : UTC 2013-01-30 02:29:12Дата пометки : UTC 2013-01-30 02:29:12


Трекер:  [ 24-Фев-2013 19:13 ]

  

Скачать .torrent

Размер .torrent файла 11 KB


Размер: 1.09 GB
Хэш (hash) релиза: 943d96f62876457a0ab7382a50fdec95272d6325

bot

Топик был перенесен из форума Мобильные устройства в форум КПК

Galfimbul

Хотите добавить комментарий к записи скачать торрент [SERIAL] Перевозчик Transporter

!Обратная связь