Man vs. Viral | Gravitation | Read More

Скачать через торрент [SERIAL] Банши Banshee бесплатно русская версия torrent активатор

Статистика раздачи
Размер:  957 MB   |    Зарегистрирован:  5 лет 4 месяца   |    .torrent скачан:  72 раза   |   
Раздают:  1  
   
загрузка...
 
Автор Сообщение

Galfimbul

avatar Galfimbul


Банши / Banshee

Год выпуска: 2013
Страна: США
Жанр: драма, криминал, детектив
Продолжительность: ~00:52:36
Перевод: Профессиональный (двухголосый, закадровый) NewStudio
Русские субтитры: нет
Режиссер: Мигель Сапочник / Miguel Sapochnik, Грег Яйтанс / Greg Yaitanes
В ролях: Энтони Старр, Ивана Миличевич, Рас Блэквелл, Мэтт Сервитто, Триесте Келли Данн, Райанн Шэйн, Фрэнки Фэйзон, Деметриус Гросс, Мэттью Ройч, Хун Ли и др.

Описание: Главный герой Banshee — бывший заключенный и профессиональный вор, который присваивает себе личность шерифа Банши (городка в Пенсильвании), где он продолжает нарушать закон, хотя ему не дают покоя гангстеры, которых он предал много лет назад.


Исходник: HDTVRip-AVC
Качество: HDTVRip
Формат: MP4
Видео кодек: H.264
Аудио кодек: AAC
Видео: H264, 480x272, (16:9), 360 kbps, 23.976 fps
Аудио: AAC, 64 kbps, 32.0 kHz, 2 ch
Релиз:
Озвучка: Кирилл Туранский, Анна Тух
Перевод: weirdie
Подготовка видео: Koss
Работа со звуком: Baggio
Постер: Vortex
1. Пилот / Pilot
2. Рейв / The Rave
3. Знакомитесь, новый босс / Meet the New Boss
4. Оглохнуть наполовину или умереть полностью / Half Dead Is Better Than All Dead
5. Кровные узы / The Kindred
6. Викс / Wicks
General Format : MPEG-4 Format profile : Base Media Codec ID : isom File size : 68.6 MiB Duration : 22mn 22s Overall bit rate mode : Variable Overall bit rate : 428 Kbps Movie name : Rip by SerhZh Writing application : Lavf52.94.0

Video #1 ID : 1 Format : AVC Format/Info : Advanced Video Codec Format profile : [email protected] Format settings, CABAC : Yes Format settings, ReFrames : 2 frames Codec ID : avc1 Codec ID/Info : Advanced Video Coding Duration : 22mn 22s Bit rate : 360 Kbps Width : 480 pixels Height : 272 pixels Display aspect ratio : 16:9 Frame rate mode : Constant Frame rate : 23.976 fps Color space : YUV Chroma subsampling : 4:2:0 Bit depth : 8 bits Scan type : Progressive Bits/(Pixel*Frame) : 0.115 Stream size : 57.6 MiB (84%) Writing library : x264 core 112 r1834 a51816a Encoding settings : cabac=1 / ref=2 / deblock=1:0:0 / analyse=0x3:0x113 / me=hex / subme=6 / psy=1 / psy_rd=1.00:0.00 / mixed_ref=0 / me_range=16 / chroma_me=1 / trellis=0 / 8x8dct=1 / cqm=0 / deadzone=21,11 / fast_pskip=1 / chroma_qp_offset=-2 / threads=2 / sliced_threads=0 / nr=0 / decimate=1 / interlaced=0 / constrained_intra=0 / bframes=3 / b_pyramid=0 / b_adapt=1 / b_bias=0 / direct=3 / weightb=1 / open_gop=0 / weightp=2 / keyint=250 / keyint_min=25 / scenecut=40 / intra_refresh=0 / rc_lookahead=40 / rc=2pass / mbtree=1 / bitrate=360 / ratetol=1.0 / qcomp=0.60 / qpmin=10 / qpmax=51 / qpstep=4 / cplxblur=20.0 / qblur=0.5 / ip_ratio=1.41 / aq=1:1.00

Audio #2 ID : 2 Format : AAC Format/Info : Advanced Audio Codec Format profile : LC Codec ID : 40 Duration : 22mn 22s Bit rate mode : Variable Bit rate : 64.0 Kbps Channel(s) : 2 channels Channel positions : Front: L R Sampling rate : 32.0 KHz Compression mode : Lossy Stream size : 10.2 MiB (15%)
Добавлен 6-ой эпизод!
Перекачайте торрент!

Трекер:  [ 24-Фев-2013 19:13 ]

  

Скачать .torrent

Размер .torrent файла 19 KB


Размер: 957 MB
Хэш (hash) релиза: a73dfcce563d5e9dc04bd74ca513e549b269c1da

bot

Топик был перенесен из форума Мобильные устройства в форум КПК

Galfimbul

Хотите добавить комментарий к записи скачать торрент [SERIAL] Банши Banshee

!Обратная связь