Simulation Games (Count: 1106) | Adventure | A Street Cat Named Bob2016103 min +5

Скачать через торрент [SERIAL] Страсти по Чапаю Серии: 1-12 из 12 бесплатно русская версия torrent активатор

Статистика раздачи
Размер:  5.31 GB   |    Зарегистрирован:  5 лет 4 месяца   |    .torrent скачан:  60 раз   |   
Раздают:  1  
   
загрузка...
 
Автор Сообщение

Galfimbul

avatar Galfimbul


Страсти по Чапаю

Год выпуска: 2012

Страна: Россия

Жанр: драма, история

Продолжительность: 00:52:00

Перевод: Не требуется

Русские субтитры: нет

Режиссер: Сергей Щербин

В ролях: Сергей Стрельников, Юлия Галкина, Евгения Лютая, Максим Дрозд, Федор Леонов, Софья Хилькова, Дмитрий Щербина, Александр Соколовский, Карина Андоленко, Кирилл Полухин
Описание: Сериал о малоизвестных деталях биографии легендарного комдива Василия Чапаева — первая любовь в 18 лет и побег из родного села, женитьба и семейная жизнь, Первая мировая война, страстные романы с другими женщинами (дочерью белогвардейского офицера и женой красного комиссара), смертельная вражда, сломанные судьбы и неотвратимая гибель на реке Урал.



Качество: DVDRip

Формат: MP4
Видео кодек: Другой MPEG4

Аудио кодек: AAC

Видео: 640х356 (16:9), MPEG-4 Visual, 1 080 Kbps, 0.19 Bits/Pixel

Аудио: ААС 128 kbps, 2 ch, 48.0 KHz
GeneralComplete name : F:\СТРАСТИ ПО ЧАПАЮ\01.mp4Format : MPEG-4Format profile : Base MediaCodec ID : isomFile size : 456 MiBDuration : 52mn 36sOverall bit rate : 1 212 KbpsWriting application : Lavf52.95.0

VideoID : 1Format : MPEG-4 VisualFormat profile : [email protected] settings, BVOP : NoFormat settings, QPel : NoFormat settings, GMC : No warppointsFormat settings, Matrix : Default (H.263)Codec ID : 20Duration : 52mn 36sBit rate mode : VariableBit rate : 1 080 KbpsWidth : 640 pixelsHeight : 356 pixelsDisplay aspect ratio : 16:9Frame rate mode : ConstantFrame rate : 25.000 fpsResolution : 8 bitsColorimetry : 4:2:0Scan type : ProgressiveBits/(Pixel*Frame) : 0.190Stream size : 406 MiB (89%)Writing library : Lavc52.109.0

AudioID : 2Format : AACFormat/Info : Advanced Audio CodecFormat version : Version 4Format profile : LCFormat settings, SBR : NoCodec ID : 40Duration : 52mn 36sBit rate mode : VariableBit rate : 128 KbpsChannel(s) : 2 channelsChannel positions : L RSampling rate : 48.0 KHzStream size : 48.1 MiB (11%)


Трекер:  [ 24-Фев-2013 19:12 ]

  

Скачать .torrent

Размер .torrent файла 14 KB


Размер: 5.31 GB
Хэш (hash) релиза: 0d8b930cb4debb28559090625c6a9a51cb7b8156

bot

Топик был перенесен из форума Мобильные устройства в форум КПК

Galfimbul

Хотите добавить комментарий к записи скачать торрент [SERIAL] Страсти по Чапаю Серии: 1-12 из 12

!Обратная связь