Camera Wars: A Sundaes for Breakfast Romance, Book 2 | Scream Queens (2015) | Темный дворецкий: Книга Атлантики (фильм) / Kuroshitsuji: Book of the Atlantic (2017) BDRip 720p | L

Скачать через торрент [SERIAL] Мгновения грядущего FlashForward бесплатно русская версия torrent активатор

Статистика раздачи
Размер:  3.78 GB   |    Зарегистрирован:  5 лет 4 месяца   |    .torrent скачан:  35 раз   |   
Раздают:  1  
   
загрузка...
 
Автор Сообщение

Galfimbul

avatar Galfimbul


Мгновения грядущего / FlashForward

Год выпуска: 2009

Страна: США
Жанр: драма, фантастика
Продолжительность: 00:43:00
Перевод: Профессиональный (многоголосый, закадровый, студия "Кравец")
Русские субтитры: нет
Режиссер: Ник Гомез, Бобби Рот, Джон Полсон
В ролях: Joseph Fiennes, John Cho, Jack Davenport, Zachary Knighton, Peyton List, Dominic Monaghan, Brian F. O'Byrne, Courtney B. Vance, Sonya Walger, Christine Woods и др.
Описание: Сериал снят по мотивам одноименного научно-популярного романа Роберта Джей Сойера. 6 октября 2009 года всё население планеты потеряло сознание ровно на 2 минуты 17 секунд. Придя в себя, оставшиеся в живых люди оказываются в новом мире. Всеобщее помутнение сознания привело к многочисленным катастрофам, авариям и смертям. А ещё за это время люди успели увидеть будущее.
Качество: WEB-DLRip
Формат: MP4
Видео кодек: H.264
Аудио кодек: AAC
Видео: MPEG4 Video (H264); 480x272 (16:9); 449 kbps; 24.00fps
Аудио: AAC 44100Hz stereo 126 kbps
Список серий:
1). Конец всему хорошему (No More Good Days).
2). Ход белыми (White to Play).
3). 137 секунд (137 Sekunden).
4). Черный лебедь (Black Swan).
5). Скажите правду (Gimme Some Truth).
6). Жуткие монстры и супер-злодеи (Scary Monsters and Super Creeps).
7). Подарок (The Gift).
8). Покер с койотом (Playing Cards with Coyote).
9). Верь (Believe).
10). A561984.
11). Откровение Ноль: часть 1 (Revelation Zero: Part 1).
12). Откровение Ноль: часть 2 (Revelation Zero: Part 2).
13). Ответный удар (Blowback).
14). Лучшие ангелы (Better Angels).
15). Жертвуем ферзём (Queen Sacrifice).
16). Человек да не разлучит (Let No Man Put Asunder).
17). Сад извилистых троп (The Garden of Forking Paths).
18). Прощай, дорога из желтого кирпича (Goodbye Yellow Brick Road).
19). Корректировка курса (Course Correction).
20). Переговоры (The Negotiation).
21). Отсчет (Countdown).
22). Грядущий шок (Future Shock).
ОбщееПолное имя : ...\FlashForward [season 1, 480x272, mp4]\FlashForward.s01e01.mp4Формат : MPEG-4Профиль формата : Base Media / Version 2Идентификатор кодека : mp42Размер файла : 188 МбайтПродолжительность : 45 м.Режим общего битрейта : ПеременныйОбщий поток : 578 Кбит/секДата кодирования : UTC 2013-01-27 02:35:51Дата пометки : UTC 2013-01-27 02:35:52Программа кодирования : mp4creator 1.4.4

ВидеоИдентификатор : 1Формат : AVCФормат/Информация : Advanced Video CodecПрофиль формата : [email protected]Параметр CABAC формата : НетПараметр ReFrames формата : 2 кадраИдентификатор кодека : avc1Идентификатор кодека/Информация : Advanced Video CodingПродолжительность : 45 м.Вид битрейта : ПеременныйБитрейт : 450 Кбит/секШирина : 480 пикселейВысота : 272 пикселяСоотношение сторон : 16:9Режим частоты кадров : ПостоянныйЧастота кадров : 24,000 кадра/секЦветовое пространство : YUVСубдискретизация насыщенности : 4:2:0Битовая глубина : 8 битТип развёртки : ПрогрессивнаяБит/(Пиксели*Кадры) : 0.144Размер потока : 146 Мбайт (78%)Язык : EnglishДата кодирования : UTC 2013-01-27 02:35:51Дата пометки : UTC 2013-01-27 02:35:52

АудиоИдентификатор : 2Формат : AACФормат/Информация : Advanced Audio CodecПрофиль формата : LCИдентификатор кодека : 40Продолжительность : 45 м.Продолжительность оригинала : 45 м.Вид битрейта : ПеременныйБитрейт : 126 Кбит/секМаксимальный битрейт : 196 Кбит/секКаналы : 2 каналаРасположение каналов : Front: L RЧастота : 44,1 КГцМетод сжатия : С потерямиРазмер потока : 40,8 Мбайт (22%)Размер потока оригинала : 40,9 Мбайт (22%)Язык : EnglishДата кодирования : UTC 2013-01-27 02:35:52Дата пометки : UTC 2013-01-27 02:35:52


Трекер:  [ 24-Фев-2013 19:12 ]

  

Скачать .torrent

Размер .torrent файла 20 KB


Размер: 3.78 GB
Хэш (hash) релиза: f97c9607725658e419dbd953c1369b7eaaa0f1a3

bot

Топик был перенесен из форума Мобильные устройства в форум КПК

Galfimbul

Хотите добавить комментарий к записи скачать торрент [SERIAL] Мгновения грядущего FlashForward

!Обратная связь