Ver catalogo completo | Сара Уэйн Кэллис | Download mp3

Скачать через торрент [VIDEO] Экипаж Flight бесплатно русская версия torrent активатор

Статистика раздачи
Размер:  404 MB   |    Зарегистрирован:  5 лет 4 месяца   |    .torrent скачан:  56 раз   |   
Раздают:  1  
   
загрузка...
 
Автор Сообщение

Galfimbul

avatar Galfimbul


Экипаж / Flight

Год выпуска: 2012
Страна: США
Жанр: драма
Продолжительность: 02:18:35
Перевод: Профессиональный (полное дублирование)
Русские субтитры: нет
Режиссер: Роберт Земекис
В ролях: Дензел Вашингтон, Келли Райлли, Брюс Гринвуд, Дон Чидл, Джон Гудмен, Тамара Тюни, Брайан Джерати, Мелисса Лео, Надин Веласкес, Майкл Бисли

Описание: Опытный пилот Уип Вайтекер чудом избегает крушения самолета, и, совершив аварийную посадку, сохраняет жизни практически всех пассажиров. Уипа чествуют, как героя, но чем больше появляется подробностей о катастрофе, тем больше вопросов возникает: что же на самом деле произошло на борту самолёта…
Качество: HDRip
Формат: MP4
Видео кодек: H.264
Аудио кодек: AAC
Видео: H264, 480x200, (2.40:1), 360 kbps, 23.976 fps
Аудио: AAC, 64 kbps, 48.0 kHz, 2 ch
General Format : MPEG-4 Format profile : Base Media Codec ID : isom File size : 404 MiB Duration : 2h 11mn Overall bit rate mode : Variable Overall bit rate : 428 Kbps Movie name : Rip by SerhZh Encoded date : UTC 2013-02-21 13:52:07 Tagged date : UTC 2013-02-21 13:52:07

Video #1 ID : 1 Format : AVC Format/Info : Advanced Video Codec Format profile : [email protected] Format settings, CABAC : Yes Format settings, ReFrames : 4 frames Codec ID : avc1 Codec ID/Info : Advanced Video Coding Duration : 2h 11mn Bit rate : 360 Kbps Maximum bit rate : 1 747 Kbps Width : 480 pixels Height : 200 pixels Display aspect ratio : 2.40:1 Frame rate mode : Constant Frame rate : 23.976 fps Color space : YUV Chroma subsampling : 4:2:0 Bit depth : 8 bits Scan type : Progressive Bits/(Pixel*Frame) : 0.156 Stream size : 340 MiB (84%) Writing library : x264 core 125 r2200 999b753 Encoding settings : cabac=1 / ref=3 / deblock=1:-2:-1 / analyse=0x1:0x111 / me=hex / subme=7 / psy=1 / psy_rd=1.00:0.20 / mixed_ref=1 / me_range=16 / chroma_me=1 / trellis=1 / 8x8dct=0 / cqm=0 / deadzone=21,11 / fast_pskip=1 / chroma_qp_offset=-3 / threads=3 / lookahead_threads=1 / sliced_threads=0 / nr=0 / decimate=0 / interlaced=0 / bluray_compat=0 / constrained_intra=0 / bframes=3 / b_pyramid=2 / b_adapt=1 / b_bias=0 / direct=1 / weightb=1 / open_gop=0 / weightp=2 / keyint=250 / keyint_min=23 / scenecut=40 / intra_refresh=0 / rc_lookahead=40 / rc=2pass / mbtree=1 / bitrate=360 / ratetol=1.0 / qcomp=0.60 / qpmin=0 / qpmax=69 / qpstep=4 / cplxblur=20.0 / qblur=0.5 / vbv_maxrate=50000 / vbv_bufsize=50000 / nal_hrd=none / ip_ratio=1.40 / aq=1:1.00 Encoded date : UTC 2013-02-21 13:52:07 Tagged date : UTC 2013-02-21 13:52:54

Audio #2 ID : 2 Format : AAC Format/Info : Advanced Audio Codec Format profile : LC Codec ID : 40 Duration : 2h 11mn Bit rate mode : Variable Bit rate : 64.0 Kbps Maximum bit rate : 75.0 Kbps Channel(s) : 2 channels Channel positions : Front: L R Sampling rate : 48.0 KHz Compression mode : Lossy Stream size : 60.4 MiB (15%) Encoded date : UTC 2013-02-21 13:52:47 Tagged date : UTC 2013-02-21 13:52:54


Трекер:  [ 24-Фев-2013 19:10 ]

  

Скачать .torrent

Размер .torrent файла 16 KB


Размер: 404 MB
Хэш (hash) релиза: fce2a8909db19b6f6d19758876dc253d7b152dab

bot

Топик был перенесен из форума Мобильные устройства в форум КПК

Galfimbul

Хотите добавить комментарий к записи скачать торрент [VIDEO] Экипаж Flight

!Обратная связь