Me Tanner, You Jane | Kotoura-san | Tales of Zestiria X

Скачать через торрент [VIDEO] Девятые врата The Ninth Gate бесплатно русская версия torrent активатор

Статистика раздачи
Размер:  1.05 GB   |    Зарегистрирован:  5 лет 4 месяца   |    .torrent скачан:  35 раз   |   
Раздают:  1  
   
загрузка...
 
Автор Сообщение

Galfimbul

avatar Galfimbul



Девятые врата
The Ninth Gate
Год выпуска: 1999
Страна: США, Франция, Испания
Жанр: ужасы, триллер, фэнтези, детектив
Продолжительность: 02:13:14
Перевод: Профессиональный (полное дублирование)
Режиссер: Роман Полански / Roman Polanski
В ролях: Джонни Депп, Фрэнк Ланджелла, Лена Улин, Эмманюэль Сенье, Барбара Джеффорд, Джек Тейлор, Хосе Лопес Родеро, Тони Амони, Джеймс Руссо, Уилли Холт
Описание: [i]Дин Корсо, один из лучших специалистов по поиску,оценке и скупке раритетных изданий, принимает от владельца крупнейшей в мире библиотеки оккультных книг необычный, но крайне выгодный заказ: определить подлинность венца собрания, фолианта XVII века под названием «Девять врат в царство призраков», с помощью которого, по преданию, можно вызвать самого Люцифера. Ему предстоит полное опасностей и тайн путешествие по Европе.
Качество: HDRip
Формат: MP4
Видео кодек: Другой MPEG4
Аудио кодек: AAC
Видео: XviD 640х272 1 000 Kbps 23.976 fps
Аудио: AAC 128 Kbps 48.0 KHz 2 channels
VideoID : 1Format : MPEG-4 VisualFormat profile : [email protected] settings, BVOP : NoFormat settings, QPel : NoFormat settings, GMC : No warppointsFormat settings, Matrix : Default (H.263)Codec ID : 20Duration : 2h 13mnBit rate mode : VariableBit rate : 1 000 KbpsMaximum bit rate : 4 957 KbpsWidth : 640 pixelsHeight : 272 pixelsDisplay aspect ratio : 2.35:1Original display aspect ratio : 2.35:1Frame rate mode : VariableFrame rate : 23.976 fpsMinimum frame rate : 23.974 fpsMaximum frame rate : 23.981 fpsColor space : YUVChroma subsampling : 4:2:0Bit depth : 8 bitsScan type : ProgressiveCompression mode : LossyBits/(Pixel*Frame) : 0.240Stream size : 953 MiB (88%)Writing library : Lavc53.15.0Encoded date : UTC 2013-02-21 17:37:28Tagged date : UTC 2013-02-21 18:27:31Color primaries : BT.601 NTSCTransfer characteristics : BT.709Matrix coefficients : BT.601

AudioID : 2Format : AACFormat/Info : Advanced Audio CodecFormat profile : LCCodec ID : 40Duration : 2h 13mnBit rate mode : VariableBit rate : 128 KbpsMaximum bit rate : 215 KbpsChannel(s) : 2 channelsChannel positions : Front: L RSampling rate : 48.0 KHzCompression mode : LossyStream size : 122 MiB (11%)Encoded date : UTC 2013-02-21 17:37:28Tagged date : UTC 2013-02-21 18:27:31


Трекер:  [ 24-Фев-2013 19:10 ]

  

Скачать .torrent

Размер .torrent файла 11 KB


Размер: 1.05 GB
Хэш (hash) релиза: 83c42df7aa3019be9b7e403a0c8d193ea8e85fa5

bot

Топик был перенесен из форума Мобильные устройства в форум КПК

Galfimbul

Хотите добавить комментарий к записи скачать торрент [VIDEO] Девятые врата The Ninth Gate

!Обратная связь