SIRI facile : Bases et commandes avancées (sur iPhone 4s-ios5.x) | SketchUp Pro 2018 | 1987: When the Day Comes

Скачать через торрент [MULT] Звёздные Войны: Войны Клонов Star Wars: The Clone Wars бесплатно русская версия torrent активатор

Статистика раздачи
Размер:  1.61 GB   |    Зарегистрирован:  5 лет 4 месяца   |    .torrent скачан:  45 раз   |   
Раздают:  1  
   
загрузка...
 
Автор Сообщение

Galfimbul

avatar Galfimbul


Звёздные Войны: Войны Клонов / Star Wars: The Clone Wars

Год выпуска: 2012

Страна: США
Жанр: Космическая фантастика / фэнтези
Продолжительность: 00:22:00
Перевод: Профессиональный (многоголосый, закадровый) LostFilm
Русские субтитры: нет
Режиссер: Dave Filoni, Dave Bullock, Brian Kalin O'Connell и др.
В ролях: Tom Kane, Dee Bradley Baker, Matt Lanter, Ashley Eckstein, James Arnold Taylor, Ian Abercrombie, Corey Burton, Matthew Wood и др.
Описание: Словосочетание «Войны Клонов» впервые прозвучало в Звёздных Войнах больше тридцати лет назад, в IV эпизоде «Новая Надежда». С тех пор фанаты строили догадки и предположения, но всё встало на свои места лишь с выходом II эпизода. А в «Мести Ситхов» всё уже закончилось. Что же происходило между II и III эпизодами величайшей саги? Что делали любимые персонажи целых 3 года? Об этом нам расскажут новые «Войны Клонов», мультсериал по великой и вечно молодой вселенной «Звёздных Войн».
Качество: WEB-DLRip
Формат: MP4
Видео кодек: H.264
Аудио кодек: AAC
Видео: MPEG4 Video (H264); 480x272 (16:9); 449 kbps; 24.00fps
Аудио: AAC 44100Hz stereo 126 kbps
ОбщееПолное имя : ...\Star Wars The Clone Wars [season 5, 480x272, mp4]\Star.Wars.The.Clone.Wars.S05E01.mp4Формат : MPEG-4Профиль формата : Base Media / Version 2Идентификатор кодека : mp42Размер файла : 90,1 МбайтПродолжительность : 22 м.Режим общего битрейта : ПеременныйОбщий поток : 561 Кбит/секДата кодирования : UTC 2012-12-01 12:07:37Дата пометки : UTC 2012-12-01 12:07:38Программа кодирования : mp4creator 1.4.4

ВидеоИдентификатор : 1Формат : AVCФормат/Информация : Advanced Video CodecПрофиль формата : [email protected]Параметр CABAC формата : НетПараметр ReFrames формата : 2 кадраИдентификатор кодека : avc1Идентификатор кодека/Информация : Advanced Video CodingПродолжительность : 22 м.Вид битрейта : ПеременныйБитрейт : 434 Кбит/секШирина : 480 пикселейВысота : 272 пикселяСоотношение сторон : 16:9Режим частоты кадров : ПостоянныйЧастота кадров : 24,000 кадра/секЦветовое пространство : YUVСубдискретизация насыщенности : 4:2:0Битовая глубина : 8 битТип развёртки : ПрогрессивнаяБит/(Пиксели*Кадры) : 0.138Размер потока : 69,6 Мбайт (77%)Язык : EnglishДата кодирования : UTC 2012-12-01 12:07:37Дата пометки : UTC 2012-12-01 12:07:38

АудиоИдентификатор : 2Формат : AACФормат/Информация : Advanced Audio CodecПрофиль формата : LCИдентификатор кодека : 40Продолжительность : 22 м.Продолжительность оригинала : 22 м.Вид битрейта : ПеременныйБитрейт : 125 Кбит/секМаксимальный битрейт : 161 Кбит/секКаналы : 2 каналаРасположение каналов : Front: L RЧастота : 44,1 КГцМетод сжатия : С потерямиРазмер потока : 20,1 Мбайт (22%)Размер потока оригинала : 20,1 Мбайт (22%)Язык : EnglishДата кодирования : UTC 2012-12-01 12:07:38Дата пометки : UTC 2012-12-01 12:07:38
01). Возрождение
02). Война на два фронта
03). Кандидаты
04). Мягкая война
05). Переломный момент
06). Сбор
07). Проба сил
08). Спасти любой ценой
09). Вынужденный союз
10). Секретное оружие
11). В пустыне в солнечный денёк
12). Пропавший без вести
13). Назад дороги нет
14). Путь к власти
15). Скрытые мотивы
16). Непокорный
17). Диверсия
18). Джедай, который слишком много знал


Трекер:  [ 24-Фев-2013 19:11 ]

  

Скачать .torrent

Размер .torrent файла 17 KB


Размер: 1.61 GB
Хэш (hash) релиза: c8be0cdd61010c493eb8bca8bbeeb43c1190d650

bot

Топик был перенесен из форума Мобильные устройства в форум КПК

Galfimbul

Хотите добавить комментарий к записи скачать торрент [MULT] Звёздные Войны: Войны Клонов Star Wars: The Clone Wars

!Обратная связь