Social Institutions | Tudatalatti hadviselés (2016) | Special Police Dekaranger

Скачать через торрент [SERIAL] Гримм Grimm бесплатно русская версия torrent активатор

Статистика раздачи
Размер:  4.5 GB   |    Зарегистрирован:  5 лет 4 месяца   |    .torrent скачан:  120 раз   |   
Раздают:  1  
   
загрузка...
 
Автор Сообщение

Galfimbul

avatar Galfimbul


Гримм / Grimm

Год выпуска: 2011-2013
Страна: США
Жанр: ужасы, фэнтези, драма, детектив
Продолжительность: ~00:42:30
Перевод: Профессиональный (многоголосый, закадровый) LostFilm
Русские субтитры: нет
Режиссер: Омар Мадха / Omar Madha, Холли Дэйл / Holly Dale
В ролях: Дэйв Гвинтоли, Расселл Хорнсби, Битси Таллоч, Сайлас Уэйр Митчелл, Саша Ройз, Регги Ли, Клэр Коффи, Айанна Беркшир, Кейт Бёртон, Тим Бэгли и др.

Описание: Молодой детектив Ник Бёркхардт является наследником рода Гримм - охотников за нечистью, живущей в мире людей.

Все потомки Гриммов обладают ключевой способностью - они могут видеть истинную сущность злых тварей, под какой бы личиной они не скрывались.

Соратником Ника становится перевоспитавшийся "Потрошитель" - оборотень Эдди Монро, помогающий ему познавать таинства древней мифологии.
Качество: WEB-DLRip
Формат: MP4
Видео кодек: H.264
Аудио кодек: AAC
Видео: H264, 480x272, (16:9), 376 kbps, 23.976 fps
Аудио: AAC, 64 kbps, 32.0 kHz, 2 ch
Озвучка: Студия "Кравец"
Работа со звуком: Nez
1. Pilot / Пилот
2. Bears Will Be Bears / Медвежья натура
3. Beeware / Осторожно, пчёлы!
4.Lonelyhearts / Одинокие сердца
5. Danse Macabre / Пляска смерти
6. The Three Bad Wolves / Три злых волка
7. Let Your Hair Down / Брось мне косу свою
8. Game Ogre / Конец огры
9. Of Mouse and Man / О мыши и человеке
10.Organ Grinder / Мясорубка
11.Tarantella / Тарантелла
12. Last Grimm Standing / Гримм-победитель
13. Three Coins in a Fuchsbau / Три монетки в рыжехвосте
14. Plumed Serpent / Пернатый змей
15. Island of Dreams / Остров грёз
16. The Thing with Feathers / Чудо в перьях
17. Love Sick / Любовная горячка
18. Cat and Mouse / Кошки-мышки
19. Leave It to Beavers / Предоставьте это бобрам
20. Happily Ever Aftermath / И жили они недолго, но счастливо
21. Big Feet / Большеноги
22. Woman in Black / Женщина в черном
1. Bad Teeth / Сквернозуб
2. The Kiss / Поцелуй
3. Bad Moon Rising / Восход дурной луны
4. Quill / Игла
5. The Good Shepherd / Добрый пастырь
6.Over My Dead Body / Через мой труп
7. The Bottle Imp / Чертёнок в бутылке
8. The Other Side / Другая сторона
9. La Llorona / Ла Йорона
10. The Hour of Death / Смертный час
11. To Protect and Serve Man / Тот, кто служит и защищает
12. Season of the Hexenbiest / Ведьмина пора
General Format : MPEG-4 Format profile : Base Media Codec ID : isom File size : 135 MiB Duration : 42mn 34s Overall bit rate mode : Variable Overall bit rate : 444 Kbps Movie name : Rip by SerhZh Writing application : Lavf52.94.0

Video #1 ID : 1 Format : AVC Format/Info : Advanced Video Codec Format profile : [email protected] Format settings, CABAC : Yes Format settings, ReFrames : 2 frames Codec ID : avc1 Codec ID/Info : Advanced Video Coding Duration : 42mn 34s Bit rate : 376 Kbps Width : 480 pixels Height : 272 pixels Display aspect ratio : 16:9 Frame rate mode : Constant Frame rate : 23.976 fps Color space : YUV Chroma subsampling : 4:2:0 Bit depth : 8 bits Scan type : Progressive Bits/(Pixel*Frame) : 0.120 Stream size : 115 MiB (85%) Writing library : x264 core 112 r1834 a51816a Encoding settings : cabac=1 / ref=2 / deblock=1:0:0 / analyse=0x3:0x113 / me=hex / subme=6 / psy=1 / psy_rd=1.00:0.00 / mixed_ref=0 / me_range=16 / chroma_me=1 / trellis=0 / 8x8dct=1 / cqm=0 / deadzone=21,11 / fast_pskip=1 / chroma_qp_offset=-2 / threads=2 / sliced_threads=0 / nr=0 / decimate=1 / interlaced=0 / constrained_intra=0 / bframes=3 / b_pyramid=0 / b_adapt=1 / b_bias=0 / direct=3 / weightb=1 / open_gop=0 / weightp=2 / keyint=250 / keyint_min=25 / scenecut=40 / intra_refresh=0 / rc_lookahead=40 / rc=2pass / mbtree=1 / bitrate=376 / ratetol=1.0 / qcomp=0.60 / qpmin=10 / qpmax=51 / qpstep=4 / cplxblur=20.0 / qblur=0.5 / ip_ratio=1.41 / aq=1:1.00

Audio #2 ID : 2 Format : AAC Format/Info : Advanced Audio Codec Format profile : LC Codec ID : 40 Duration : 42mn 34s Bit rate mode : Variable Bit rate : 64.0 Kbps Channel(s) : 2 channels Channel positions : Front: L R Sampling rate : 32.0 KHz Compression mode : Lossy Stream size : 19.5 MiB (14%)


Трекер:  [ 24-Фев-2013 19:11 ]

  

Скачать .torrent

Размер .torrent файла 15 KB


Размер: 4.5 GB
Хэш (hash) релиза: f732581e0fb82b5a6c5b28b94b1d21c3e108ec3b

bot

Топик был перенесен из форума Мобильные устройства в форум КПК

Galfimbul

Хотите добавить комментарий к записи скачать торрент [SERIAL] Гримм Grimm

!Обратная связь