Revo Uninstaller PRO v3.2.1 Multilingual (Windows) | Natti Natasha ❌ Ozuna - Criminal [Official Video] | Sakura Quest

Скачать через торрент [VIDEO] Хорошо быть тихоней The Perks of Being a Wallflower бесплатно русская версия torrent активатор

Статистика раздачи
Размер:  302 MB   |    Зарегистрирован:  5 лет 4 месяца   |    .torrent скачан:  26 раз   |   
Раздают:  1  
   
загрузка...
 
Автор Сообщение

Galfimbul

avatar Galfimbul


Хорошо быть тихоней / The Perks of Being a Wallflower

Год выпуска: 2012
Страна: США
Жанр: драма, мелодрама
Продолжительность: 01:42:40
Перевод: Профессиональный (полное дублирование)
Русские субтитры: нет
Режиссер: Стивен Чбоски
В ролях: Логан Лерман, Эмма Уотсон, Эзра Миллер, Дилан МакДермотт, Кейт Уолш, Патрик Де Ледебур, Джонни Симмонс, Брайан Балзерини, Том Крушевски, Нина Добрев, Николас Браун, Джулия Гарнер и др.

Описание: История о Чарли, ученике старшей школы в Питтсбурге, стеснительном и непопулярном. На наших глазах Чарли взрослеет, меняется круг его общения, меняется его мнение о мире.


Исходник: Rip by Scarabey 1.45 GB
Качество: HDRip
Формат: MP4
Видео кодек: H.264
Аудио кодек: AAC
Видео: H264, 480x272, (16:9), 360 kbps, 23.976 fps
Аудио: AAC, 64 kbps, 48.0 kHz, 2 ch
General Format : MPEG-4 Format profile : Base Media Codec ID : isom File size : 302 MiB Duration : 1h 38mn Overall bit rate mode : Variable Overall bit rate : 428 Kbps Movie name: Rip by SerhZh Encoded date : UTC 2013-02-17 15:45:58 Tagged date : UTC 2013-02-17 15:45:58

Video #1 ID : 1 Format : AVC Format/Info : Advanced Video Codec Format profile : [email protected] Format settings, CABAC : Yes Format settings, ReFrames : 4 frames Codec ID : avc1 Codec ID/Info : Advanced Video Coding Duration : 1h 38mn Bit rate : 360 Kbps Maximum bit rate : 2 068 Kbps Width : 480 pixels Height : 272 pixels Display aspect ratio : 16:9 Frame rate mode : Constant Frame rate : 23.976 fps Color space : YUV Chroma subsampling : 4:2:0 Bit depth : 8 bits Scan type : Progressive Bits/(Pixel*Frame) : 0.115 Stream size : 254 MiB (84%) Writing library : x264 core 125 r2200 999b753 Encoding settings : cabac=1 / ref=3 / deblock=1:-2:-1 / analyse=0x1:0x111 / me=hex / subme=7 / psy=1 / psy_rd=1.00:0.20 / mixed_ref=1 / me_range=16 / chroma_me=1 / trellis=1 / 8x8dct=0 / cqm=0 / deadzone=21,11 / fast_pskip=1 / chroma_qp_offset=-3 / threads=3 / lookahead_threads=1 / sliced_threads=0 / nr=0 / decimate=0 / interlaced=0 / bluray_compat=0 / constrained_intra=0 / bframes=3 / b_pyramid=2 / b_adapt=1 / b_bias=0 / direct=1 / weightb=1 / open_gop=0 / weightp=2 / keyint=250 / keyint_min=23 / scenecut=40 / intra_refresh=0 / rc_lookahead=40 / rc=2pass / mbtree=1 / bitrate=360 / ratetol=1.0 / qcomp=0.60 / qpmin=0 / qpmax=69 / qpstep=4 / cplxblur=20.0 / qblur=0.5 / vbv_maxrate=50000 / vbv_bufsize=50000 / nal_hrd=none / ip_ratio=1.40 / aq=1:1.00 Encoded date : UTC 2013-02-17 15:45:58 Tagged date : UTC 2013-02-17 15:46:29

Audio #2 ID : 2 Format : AAC Format/Info : Advanced Audio Codec Format profile : LC Codec ID : 40 Duration : 1h 38mn Bit rate mode : Variable Bit rate : 64.0 Kbps Maximum bit rate : 71.6 Kbps Channel(s) : 2 channels Channel positions : Front: L R Sampling rate : 48.0 KHz Compression mode : Lossy Stream size : 45.2 MiB (15%) Encoded date : UTC 2013-02-17 15:46:24 Tagged date : UTC 2013-02-17 15:46:29


Трекер:  [ 24-Фев-2013 19:11 ]

  

Скачать .torrent

Размер .torrent файла 12 KB


Размер: 302 MB
Хэш (hash) релиза: db1f96182e5f89dd4fee231d61a8be84b0c7620d

Торренты, похожие на [VIDEO] Хорошо быть тихоней The Perks of Being a Wallflower скачать торрент

Форум Название Автор Размер S L Добавлен
Видео (Фильмы/Клипы) ·· [VIDEO] Хорошо быть тихоней / The Perks of Being a Wallflower (Стивен Чбоски / Stephen Chbosk) [2012, драма, мелодрама, BDRip] [MP4, 640x] DUB damien1990 931911625889 MB 0 0 1363549513

22:45

17-Мар-13

bot

Топик был перенесен из форума Мобильные устройства в форум КПК

Galfimbul

Хотите добавить комментарий к записи скачать торрент [VIDEO] Хорошо быть тихоней The Perks of Being a Wallflower

!Обратная связь