Moine Fou | Anime de Wakaru Shinryounaika | Rick and Morty S01 S02 Season 1 2 480p,720p,1080p WEB-DL x264

Скачать через торрент [MULT] Шрек. Триллер Shrek. Thriller Night бесплатно русская версия torrent активатор

Статистика раздачи
Размер:  55 MB   |    Зарегистрирован:  5 лет 5 месяцев   |    .torrent скачан:  30 раз   |   
Раздают:  1  
   
загрузка...
 
Автор Сообщение

Galfimbul

avatar Galfimbul




Страна: США
Год выпуска: 2011
Жанр: короткометражный анимационный фильм
Продолжительность: 00:05:05
Перевод: Любительский (одногоголосый закадровый)
Режиссёр: Гэри Траусдейл / Gary Trousdale, Шон Бишоп / Sean Bishop
Роли озвучивали: Shrek - <span class="p-color" style="color: #996600;">Michael Gough, Donkey - Dean Edwards, Princess Fiona - Holly Fields, Puss in Boots - André Sogliuzzo, Pinocchio & Three Pigs - Cody Cameron, Gingerbread Man - Conrad Vernon, Rumpelstiltskin - Walt Dohrn, Headless Horseman - Bobby Kimball, Zombie Chorus - Sean Bishop, Jerry Clarke, Brentley Gore, Mark McCracken, Pinky Turzo.</span>

Шреку наскучил обыденный Хэллоуин, ему захотелось что-то по-настоящему страшное. Сила "Триллера" дала ему больше, чем он ожидал...



Качество: [b]BDRip[/b] | Формат: MP4 | Видео кодек: XviD | Аудио кодек: AAC | Видео: XviD (1.2.2) 1400kbps 800x448 23.976fps | Аудио: AAC 128kbps 2ch 16bit 48000khz
Format : MPEG-4
Format profile : Base Media / Version 2
Codec ID : mp42
File size : 55.0 MiB
Duration : 5mn 6s
Overall bit rate mode : Variable
Overall bit rate : 1 508 Kbps
Encoded date : UTC 2013-02-05 12:58:52
Tagged date : UTC 2013-02-05 12:58:52

Video
ID : 201
Format : MPEG-4 Visual
Format profile : Advanced [email protected]
Format settings, BVOP : No
Format settings, QPel : No
Format settings, GMC : No warppoints
Format settings, Matrix : Default (H.263)
Codec ID : 20
Duration : 5mn 5s
Bit rate mode : Variable
Bit rate : 1 379 Kbps
Maximum bit rate : 3 138 Kbps
Width : 800 pixels
Height : 448 pixels
Display aspect ratio : 16:9
Frame rate mode : Variable
Frame rate : 23.672 fps
Original frame rate : 23.976 fps
Minimum frame rate : 0.922 fps
Maximum frame rate : 23.976 fps
Color space : YUV
Chroma subsampling : 4:2:0
Bit depth : 8 bits
Scan type : Progressive
Compression mode : Lossy
Bits/(Pixel*Frame) : 0.162
Stream size : 50.3 MiB (91%)
Writing library : XviD 1.2.1 (UTC 2008-12-04)
Encoded date : UTC 2013-02-05 12:58:52
Tagged date : UTC 2013-02-05 12:58:54

Audio
ID : 101
Format : AAC
Format/Info : Advanced Audio Codec
Format profile : LC
Codec ID : 40
Duration : 5mn 6s
Bit rate mode : Variable
Bit rate : 128 Kbps
Maximum bit rate : 144 Kbps
Channel(s) : 2 channels
Channel positions : Front: L R
Sampling rate : 48.0 KHz
Compression mode : Lossy
Stream size : 4.66 MiB (8%)
Encoded date : UTC 2013-02-05 12:58:54
Tagged date


Трекер:  [ 05-Фев-2013 17:46 ]

  

Скачать .torrent

Размер .torrent файла 18 KB


Размер: 55 MB
Хэш (hash) релиза: bf59742539780f75000c10e966b87ca131817c31

Еще никто не оставлял запись к записи скачать торрент [MULT] Шрек. Триллер Shrek. Thriller Night . Будь первым!

!Обратная связь