Night Terrors | Francisco Reyes | Advanced Renamer 3 82 Commercial - SeuPirate

Скачать через торрент музыку Bob Marley & The Wailers - Feel Alright - 2004, FLAC бесплатно без регистрации torrent

Статистика раздачи
Размер:  308 MB   |    Зарегистрирован:  5 лет 5 месяцев   |    .torrent скачан:  59 раз   |   
Раздают:  1  
   
загрузка...
 
Автор Сообщение

Galfimbul

avatar Galfimbul


Bob Marley & The Wailers / Feel Alright

Жанр: Reggae
Страна-производитель диска: Украина
Год издания: 2004
Издатель (лейбл): JAD / Universal International Music B.V.
Номер по каталогу: 9813429
Страна: Ямайка
Аудиокодек: FLAC (*.flac)
Тип рипа: image+.cue
Битрейт аудио: lossless
Продолжительность: 00:57:40
Источник (релизер): Собственный диск
Наличие сканов в содержимом раздачи: да
Треклист:
01. Stir It Up
02. African Herbsman
03. Bend Down Law
04. Caution
05. Small Axe
06. Turn Me Loose
07. Screwface
08. Mellow Mood
09. Jah Is Mighty
10. Feel Alright
11. Thank You Lord
12. Shocks Of The Mighty (Feat. L. Perry)
13. Soon Come
14. More Axe
15. Man To Man
16. Thread Oh
17. Sun Is Shining
18. Brand New Second Hand
19. Reggae On Broadway
Exact Audio Copy V1.0 beta 3 from 29. August 2011

Отчёт EAC об извлечении, выполненном 2. февраля 2013, 23:16

Bob Marley & The Wailers / Feel Alright

Дисковод: HL-DT-STDVDRAM GSA-H42L Adapter: 0 ID: 0

Режим чтения : ДостоверностьИспользование точного потока : ДаОтключение кэша аудио : ДаИспользование указателей C2 : Нет

Коррекция смещения при чтении : 667Способность читать области Lead-in и Lead-out : НетЗаполнение пропущенных сэмплов тишиной : ДаУдаление блоков с тишиной в начале и конце : НетПри вычислениях CRC использовались нулевые сэмплы : ДаИнтерфейс : Встроенный Win32-интерфейс для Win NT/2000

Выходной формат : Пользовательский кодировщикВыбранный битрейт : 896 kBit/sКачество : ВысокийДобавление ID3-тега : НетУтилита сжатия : C:\Program Files\FLAC\flac.exeДополнительные параметры : -V -8 -T "Date=%year%" -T "Genre=%genre%" %source%

TOC извлечённого CD

Трек | Старт | Длительность | Начальный сектор | Конечный сектор --------------------------------------------------------------------- 1 | 0:00.00 | 3:09.52 | 0 | 14226 2 | 3:09.52 | 2:22.43 | 14227 | 24919 3 | 5:32.20 | 3:29.67 | 24920 | 40661 4 | 9:02.12 | 2:43.08 | 40662 | 52894 5 | 11:45.20 | 4:02.10 | 52895 | 71054 6 | 15:47.30 | 2:35.52 | 71055 | 82731 7 | 18:23.07 | 2:20.03 | 82732 | 93234 8 | 20:43.10 | 2:36.72 | 93235 | 105006 9 | 23:20.07 | 2:27.13 | 105007 | 116044 10 | 25:47.20 | 2:31.42 | 116045 | 127411 11 | 28:18.62 | 3:20.53 | 127412 | 142464 12 | 31:39.40 | 3:35.25 | 142465 | 158614 13 | 35:14.65 | 2:22.55 | 158615 | 169319 14 | 37:37.45 | 4:11.12 | 169320 | 188156 15 | 41:48.57 | 3:32.48 | 188157 | 204104 16 | 45:21.30 | 2:51.10 | 204105 | 216939 17 | 48:12.40 | 2:10.55 | 216940 | 226744 18 | 50:23.20 | 4:01.17 | 226745 | 244836 19 | 54:24.37 | 3:13.58 | 244837 | 259369

Характеристики диапазона извлечения и сообщения об ошибках

Выбранный диапазон

Имя файла E:\Bob Marley & The Wailers\2004, Feel Alright\Bob Marley & The Wailers - Feel Alright.wav

Пиковый уровень 100.0 % Скорость извлечения 7.5 X Качество диапазона 100.0 % CRC теста B71C9A53 CRC копии B71C9A53 Копирование... OK

Ошибок не произошло

AccurateRip: сводка

Трек 1 точность не определена (достоверность 7) [9D972EE5], AccurateRip вернул [43A22789] (AR v2)Трек 2 точность не определена (достоверность 8) [BF73E059], AccurateRip вернул [3B1A51EF] (AR v2)Трек 3 точность не определена (достоверность 8) [DA4A42F4], AccurateRip вернул [4E68EE42] (AR v2)Трек 4 точность не определена (достоверность 7) [0788C256], AccurateRip вернул [AFEB5935] (AR v2)Трек 5 точность не определена (достоверность 6) [C1E41085], AccurateRip вернул [44C45783] (AR v2)Трек 6 точность не определена (достоверность 7) [9C9EB883], AccurateRip вернул [9D4AABBB] (AR v2)Трек 7 точность не определена (достоверность 7) [89D4D9A5], AccurateRip вернул [F897CD40] (AR v2)Трек 8 точность не определена (достоверность 7) [70C36D69], AccurateRip вернул [E0F9E33F] (AR v2)Трек 9 точность не определена (достоверность 7) [BD0503E7], AccurateRip вернул [803583F0] (AR v2)Трек 10 точность не определена (достоверность 8) [D3374632], AccurateRip вернул [2882198A] (AR v2)Трек 11 точность не определена (достоверность 8) [FF9AB9FF], AccurateRip вернул [1A686E48] (AR v2)Трек 12 точность не определена (достоверность 7) [126782CA], AccurateRip вернул [089A606A] (AR v2)Трек 13 точность не определена (достоверность 7) [8191FC2A], AccurateRip вернул [65D144D2] (AR v2)Трек 14 точность не определена (достоверность 7) [8771A2A7], AccurateRip вернул [3DD2DE6D] (AR v2)Трек 15 точность не определена (достоверность 7) [B17D8C3B], AccurateRip вернул [D00DD1A2] (AR v2)Трек 16 точность не определена (достоверность 7) [66F8D25D], AccurateRip вернул [C63D1B2F] (AR v2)Трек 17 точность не определена (достоверность 8) [E02750C6], AccurateRip вернул [52B1D03C] (AR v2)Трек 18 точность не определена (достоверность 7) [B488C36B], AccurateRip вернул [98039FD1] (AR v2)Трек 19 точность не определена (достоверность 8) [E985DC8A], AccurateRip вернул [285EDC7A] (AR v2)

Ни один трек не прошёл проверки на точностьВ вашей базе может быть иной вариант штамповки диска

Конец отчёта

==== Контрольная сумма отчёта 0C81D4A3CFF29AF40089E5E8F2F2ED6EA25D865B93027FC2C5487F2F731FEF6F ====


Трекер:  [ 05-Фев-2013 18:18 ]

  

Скачать .torrent

Размер .torrent файла 13 KB


Размер: 308 MB
Хэш (hash) релиза: 197756ea09b48e91260fcbbdf575bb9f58afd4b3

Еще никто не оставлял запись к записи скачать торрент Bob Marley & The Wailers - Feel Alright - 2004, FLAC . Будь первым!

!Обратная связь