Skupljaci perja (1967) ceo film gledanje
Télécharger HDRIP French

Скачать через торрент [SERIAL] Последователи The Following бесплатно русская версия torrent активатор

Статистика раздачи
Размер:  273 MB   |    Зарегистрирован:  5 лет 2 месяца   |    .torrent скачан:  36 раз   |   
Раздают:  1  
   
загрузка...
 
Автор Сообщение

Galfimbul

avatar Galfimbul


Последователи / The Following

Год выпуска: 2013
Страна: США
Жанр: триллер, драма, криминал
Продолжительность: ~00:44:00
Перевод: Профессиональный (двухголосый, закадровый) Кубик в Кубе
Русские субтитры: нет
Режиссер: Маркос Сига / Marcos Siega
В ролях: Кевин Бейкон, Джеймс Пьюрфой, Шон Эшмор, Кайл Кэтлетт, Натали Зиа, Энни Пэррис, Нико Торторелла и др.

Описание: Главный антигерой - Джо Кэрол, бывший профессор колледжа, который преподавал работы Эдгара По и параллельно убивал молодых женщин во славу романтизма, пока не был пойман. С того момента он провел множество часов за компьютером в тюремной библиотеке, создавая социальную сеть из убийц-подражателей, которые исполняют любую его команду. Сериал начинается с того момента, когда Кэрол спасается от смертной казни с помощью своих последователей, и ФБР, в свою очередь, приглашает Райана Харди, который схватил Джо в первый раз, для консультирования в деле его поимки.
Качество: WEB-DLRip
Формат: MP4
Видео кодек: H.264
Аудио кодек: AAC
Видео: H264, 480x272, (16:9), 360 kbps, 23.976 fps
Аудио: AAC, 64 kbps, 32.0 kHz, 2 ch
&
Озвучка: Кубик В Кубе
Перевод: El_Brujo
Работа со звуком: ЛП
При поддержке: AviaSales
Эпизод 1. Пилот / Pilot
Эпизод 2. Глава вторая / Chapter Two
General Format : MPEG-4 Format profile : Base Media Codec ID : isom File size : 140 MiB Duration : 45mn 38s Overall bit rate mode : Variable Overall bit rate : 428 Kbps Writing application : Lavf52.94.0

Video #1 ID : 1 Format : AVC Format/Info : Advanced Video Codec Format profile : <a href="mailto:[email protected]" class="postLink">[email protected]</a> Format settings, CABAC : Yes Format settings, ReFrames : 2 frames Codec ID : avc1 Codec ID/Info : Advanced Video Coding Duration : 45mn 38s Bit rate : 360 Kbps Width : 480 pixels Height : 272 pixels Display aspect ratio : 16:9 Frame rate mode : Constant Frame rate : 23.976 fps Color space : YUV Chroma subsampling : 4:2:0 Bit depth : 8 bits Scan type : Progressive Bits/(Pixel*Frame) : 0.115 Stream size : 118 MiB (84%) Writing library : x264 core 112 r1834 a51816a Encoding settings : cabac=1 / ref=2 / deblock=1:0:0 / analyse=0x3:0x113 / me=hex / subme=6 / psy=1 / psy_rd=1.00:0.00 / mixed_ref=0 / me_range=16 / chroma_me=1 / trellis=0 / 8x8dct=1 / cqm=0 / deadzone=21,11 / fast_pskip=1 / chroma_qp_offset=-2 / threads=2 / sliced_threads=0 / nr=0 / decimate=1 / interlaced=0 / constrained_intra=0 / bframes=3 / b_pyramid=0 / b_adapt=1 / b_bias=0 / direct=3 / weightb=1 / open_gop=0 / weightp=2 / keyint=250 / keyint_min=25 / scenecut=40 / intra_refresh=0 / rc_lookahead=40 / rc=2pass / mbtree=1 / bitrate=360 / ratetol=1.0 / qcomp=0.60 / qpmin=10 / qpmax=51 / qpstep=4 / cplxblur=20.0 / qblur=0.5 / ip_ratio=1.41 / aq=1:1.00

Audio #2 ID : 2 Format : AAC Format/Info : Advanced Audio Codec Format profile : LC Codec ID : 40 Duration : 45mn 38s Bit rate mode : Variable Bit rate : 64.0 Kbps Channel(s) : 2 channels Channel positions : Front: L R Sampling rate : 32.0 KHz Compression mode : Lossy Stream size : 20.9 MiB (15%)


Трекер:  [ 03-Фев-2013 11:33 ]

  

Скачать .torrent

Размер .torrent файла 11 KB


Размер: 273 MB
Хэш (hash) релиза: 6d23dbb40af674dc5245f4d74a324c0447cdc3b0

Еще никто не оставлял запись к записи скачать торрент [SERIAL] Последователи The Following . Будь первым!

!Обратная связь