SWING BIG BANDS en Vintage Music | Télécharger Part 11 | Season 5 Episode 13 That's the Way Love Goes

Скачать через торрент [SERIAL] Последователи The Following бесплатно русская версия torrent активатор

Статистика раздачи
Размер:  187 MB   |    Зарегистрирован:  5 лет 5 месяцев   |    .torrent скачан:  29 раз   |   
Раздают:  1  
   
загрузка...
 
Автор Сообщение

Galfimbul

avatar Galfimbul


Последователи / The Following

Год выпуска: 2013

Страна: США
Жанр: Драма, Криминальный, Триллер
Продолжительность: 00:45:48
Перевод: Профессиональный (многоголосый, закадровый)
Русские субтитры: нет
Режиссер: Маркос Сига / Marcos Siega
В ролях: Kevin Bacon, James Purefoy, Jeananne Goossen, Natalie Zea, Shawn Ashmore и другие.
Описание: Главный антигерой - Джо Кэрролл, бывший профессор колледжа, который преподавал работы Эдгара По и параллельно убивал молодых женщин во славу романтизма, пока не был пойман. С того момента он провел множество часов за компьютером в тюремной библиотеке, создавая социальную сеть из убийц-подражателей, которые исполняют любую его команду. Сериал начинается с того момента, когда Кэрролл спасается от смертной казни с помощью своих последователей, и ФБР, в свою очередь, приглашает Райана Харди, который схватил Джо в первый раз, для консультирования в деле его поимки.
Качество: WEB-DLRip
Формат: MP4
Видео кодек: H.264
Аудио кодек: AAC
Видео: MPEG4 Video (H264); 480x272 (16:9); 449 kbps; 24.00fps
Аудио: AAC 44100Hz stereo 126 kbps
ОбщееПолное имя : ...\Following [season 1, 480x272, mp4]\The.Following.S01E01.mp4Формат : MPEG-4Профиль формата : Base Media / Version 2Идентификатор кодека : mp42Размер файла : 187 МбайтПродолжительность : 45 м.Режим общего битрейта : ПеременныйОбщий поток : 570 Кбит/секДата кодирования : UTC 2013-02-02 02:56:57Дата пометки : UTC 2013-02-02 02:56:59Программа кодирования : mp4creator 1.4.4

ВидеоИдентификатор : 1Формат : AVCФормат/Информация : Advanced Video CodecПрофиль формата : <a href="mailto:[email protected]Параметр" class="postLink">[email protected]Параметр</a> CABAC формата : НетПараметр ReFrames формата : 2 кадраИдентификатор кодека : avc1Идентификатор кодека/Информация : Advanced Video CodingПродолжительность : 45 м.Вид битрейта : ПеременныйБитрейт : 442 Кбит/секШирина : 480 пикселейВысота : 272 пикселяСоотношение сторон : 16:9Режим частоты кадров : ПостоянныйЧастота кадров : 24,000 кадра/секЦветовое пространство : YUVСубдискретизация насыщенности : 4:2:0Битовая глубина : 8 битТип развёртки : ПрогрессивнаяБит/(Пиксели*Кадры) : 0.141Размер потока : 145 Мбайт (78%)Язык : EnglishДата кодирования : UTC 2013-02-02 02:56:57Дата пометки : UTC 2013-02-02 02:56:58

АудиоИдентификатор : 2Формат : AACФормат/Информация : Advanced Audio CodecПрофиль формата : LCИдентификатор кодека : 40Продолжительность : 45 м.Продолжительность оригинала : 45 м.Вид битрейта : ПеременныйБитрейт : 126 Кбит/секМаксимальный битрейт : 295 Кбит/секКаналы : 2 каналаРасположение каналов : Front: L RЧастота : 44,1 КГцМетод сжатия : С потерямиРазмер потока : 41,1 Мбайт (22%)Размер потока оригинала : 41,1 Мбайт (22%)Язык : EnglishДата кодирования : UTC 2013-02-02 02:56:58Дата пометки : UTC 2013-02-02 02:56:59


Трекер:  [ 02-Фев-2013 17:38 ]

  

Скачать .torrent

Размер .torrent файла 15 KB


Размер: 187 MB
Хэш (hash) релиза: e4b176935f11211ff6afc888ffc68ae6bff76fba

Торренты, похожие на [SERIAL] Последователи The Following скачать торрент

Форум Название Автор Размер S L Добавлен
Видео (Фильмы/Клипы) ·· [SERIAL] Последователи / The Following / Сезон 1, серии 1-2 (15) (Маркос Сига / Marcos Siega) [2013, триллер, драма, криминал, WEB-DLRip] [MP4, 480x] (Кубик в Кубе) Galfimbul 285988308273 MB 0 0 1359880380

11:33

3-Фев-13

Еще никто не оставлял запись к записи скачать торрент [SERIAL] Последователи The Following . Будь первым!

!Обратная связь