Highres Movies | Joe Lynch | Great Rail Restorations S01E01 480p x264-mSD 45 minutes

Скачать через торрент [SERIAL] Бриклберри Brickleberry бесплатно русская версия torrent активатор

Статистика раздачи
Размер:  649 MB   |    Зарегистрирован:  5 лет 5 месяцев   |    .torrent скачан:  48 раз   |   
Раздают:  1  
   
загрузка...
 
Автор Сообщение

Galfimbul

avatar Galfimbul


Бриклберри / Brickleberry

Год выпуска: 2012
Страна: США
Жанр: мультсериал, комедия
Продолжительность: ~00:21:00
Перевод: Профессиональный (двухголосый, закадровый) Бяко Рекордс
Русские субтитры: нет
Режиссер: Роджер Блэк / Roger Black, Вако Оджин / Waco O'Guin
Роли озвучивали: Роджер Блэк, Дэвид Хэрман, Том Кенни, Кэйтлин Олсен, Дэниэл Тош

Описание: Перед вами новый американский мультипликационный сериал, Бриклберри в хорошем качестве, в центре которого забавная группа лесников-раздолбаев, столкнувшихся с большой проблемой. Национальный парк, в котором они работали и практически все свое время проводили там, хотят закрыть и превратить в непонятно что. А в помощь нашим героям приходит еще один новенький работник, главная цель которого сохранить и полностью преобразить прекрасный заповедник...

Релиз:
Качество: WEB-DLRip
Формат: MP4
Видео кодек: H.264
Аудио кодек: AAC
Видео: H264, 480x272, (16:9), 360 kbps, 23.976 fps
Аудио: AAC, 64 kbps, 32.0 kHz, 2 ch
Эпизод 1. Добро пожаловать в Бриклберри / Welcome to Brickleberry
Эпизод 2. Заметка недели / 2 Weeks Notice
Эпизод 3. Cпасенные яйцами / Saved by the Balls
Эпизод 4. Белзайка / Squabbits
Эпизод 5. Смена Расы / Race Off
Эпизод 6. Гей Бомба / Gay Bomb
Эпизод 7. Привет, Дотти / Hello Dottie
Эпизод 8. Лысина Стива / Steve's Bald
Эпизод 9. Комплекс Электры / Daddy Issues
Эпизод 10. Остаться в живых: Прорыв дамбы / The Dam Show

General Format : MPEG-4 Format profile : Base Media Codec ID : isom File size : 66.3 MiB Duration : 21mn 38s Overall bit rate mode : Variable Overall bit rate : 428 Kbps Writing application : Lavf52.94.0

Video #1 ID : 1 Format : AVC Format/Info : Advanced Video Codec Format profile : <a href="mailto:[email protected]" class="postLink">[email protected]</a> Format settings, CABAC : Yes Format settings, ReFrames : 2 frames Codec ID : avc1 Codec ID/Info : Advanced Video Coding Duration : 21mn 38s Bit rate : 360 Kbps Width : 480 pixels Height : 272 pixels Display aspect ratio : 16:9 Frame rate mode : Constant Frame rate : 23.976 fps Color space : YUV Chroma subsampling : 4:2:0 Bit depth : 8 bits Scan type : Progressive Bits/(Pixel*Frame) : 0.115 Stream size : 55.7 MiB (84%) Writing library : x264 core 112 r1834 a51816a Encoding settings : cabac=1 / ref=2 / deblock=1:0:0 / analyse=0x3:0x113 / me=hex / subme=6 / psy=1 / psy_rd=1.00:0.00 / mixed_ref=0 / me_range=16 / chroma_me=1 / trellis=0 / 8x8dct=1 / cqm=0 / deadzone=21,11 / fast_pskip=1 / chroma_qp_offset=-2 / threads=2 / sliced_threads=0 / nr=0 / decimate=1 / interlaced=0 / constrained_intra=0 / bframes=3 / b_pyramid=0 / b_adapt=1 / b_bias=0 / direct=3 / weightb=1 / open_gop=0 / weightp=2 / keyint=250 / keyint_min=25 / scenecut=40 / intra_refresh=0 / rc_lookahead=40 / rc=2pass / mbtree=1 / bitrate=360 / ratetol=1.0 / qcomp=0.60 / qpmin=10 / qpmax=51 / qpstep=4 / cplxblur=20.0 / qblur=0.5 / ip_ratio=1.41 / aq=1:1.00

Audio #2 ID : 2 Format : AAC Format/Info : Advanced Audio Codec Format profile : LC Codec ID : 40 Duration : 21mn 38s Bit rate mode : Variable Bit rate : 64.0 Kbps Channel(s) : 2 channels Channel positions : Front: L R Sampling rate : 32.0 KHz Compression mode : Lossy Stream size : 9.90 MiB (15%)



Трекер:  [ 29-Янв-2013 18:38 ]

  

Скачать .torrent

Размер .torrent файла 14 KB


Размер: 649 MB
Хэш (hash) релиза: b868c925f92f61d170a5babd47657ca1ca280e65

Еще никто не оставлял запись к записи скачать торрент [SERIAL] Бриклберри Brickleberry . Будь первым!

!Обратная связь