Chchi Ko Chudavate Range Haath Pakda | Battle Creek | padmaavat 720p

Скачать через торрент [VIDEO] Судья Дредд Dredd бесплатно русская версия torrent активатор

Статистика раздачи
Размер:  747 MB   |    Зарегистрирован:  5 лет 5 месяцев   |    .torrent скачан:  33 раза   |   
Раздают:  1  
   
загрузка...
 
Автор Сообщение

Galfimbul

avatar Galfimbul


Судья Дредд

Год выпуска: 2012| Страна: | Жанр: фантастика, боевик| Продолжительность: 01:35:51| Перевод: Профессиональный (полное дублирование)

Режиссер: Пит Трэвис

В ролях: Карл Урбан (Judge Dredd), Оливия Тирлби (Anderson), Лина Хиди (Ma-Ma), Вуд Харрис (Kay), Рэйчел Вуд (Control Operator 1), Андил Мнгади (Passenger), Портес Ксандо Стинкамп (Driver), Джейсон Коуп (Zwirner), Эмма Бреши (Hostage), Рэки Айола (Chief Judge), Тамер Барджаг (Ma-Ma Bodyguard), Уоррик Грайр (Caleb)
Будущее не столь красочно и великолепно, каким его представляют современные люди. Через несколько столетий человечество окажется на грани самоуничтожения, захлёбываясь в кровавых преступлениях, смертельных грехах и беспорядочных убийствах. Старую систему правосудия будет невозможно использовать - анархия, всеобщие беспорядки вынуждают ещё сохранившуюся власть, тем не менее, потерявшую всякий авторитет и легитимность, пойти на отчаянные крайние меры и ввести институт Судей - универсальных полицейских, правоприменителей, а по совместительству - и прокуроров, которые упростили бы весь процесс задержания, следствия и судебных тяжб, совмещая в одном лице все должности блюстителей и защитников правопорядка.


Качество: HDRip| Формат: MP4| Видео кодек: MPEG-4| Аудио кодек: AAC LC| Видео: 640x272, 23.976 fps, 959 kbps, 0.23 bit/pixel| Аудио: 48 kHz, 2 ch, 128 kbps
Общее
Полное имя : Dredd.mp4
Формат : MPEG-4
Профиль формата : Base Media / Version 2
Идентификатор кодека : mp42
Размер файла : 747 Мбайт
Продолжительность : 1 ч. 35 м.
Режим общего битрейта : Переменный
Общий поток : 1089 Кбит/сек
Дата кодирования : UTC 2013-01-23 12:48:48
Дата пометки : UTC 2013-01-23 12:48:48

Видео
Идентификатор : 201
Формат : MPEG-4 Visual
Профиль формата : Advanced [email protected]
Параметр BVOP формата : Нет
Параметр QPel формата : Нет
Параметр GMC формата : Без точки перехода
Параметр матрицы формата : Default (H.263)
Идентификатор кодека : 20
Продолжительность : 1 ч. 35 м.
Вид битрейта : Переменный
Битрейт : 959 Кбит/сек
Максимальный битрейт : 4783 Кбит/сек
Ширина : 640 пикселей
Высота : 272 пикселя
Соотношение сторон : 2,35:1
Режим частоты кадров : Постоянный
Частота кадров : 23,976 кадра/сек
Цветовое пространство : YUV
Субдискретизация насыщенности : 4:2:0
Битовая глубина : 8 бит
Тип развёртки : Прогрессивная
Метод сжатия : С потерями
Бит/(Пиксели*Кадры) : 0.230
Размер потока : 657 Мбайт (88%)
Библиотека кодирования : XviD 64
Дата кодирования : UTC 2013-01-23 12:48:48
Дата пометки : UTC 2013-01-23 12:49:18

Аудио
Идентификатор : 101
Формат : AAC
Формат/Информация : Advanced Audio Codec
Профиль формата : LC
Идентификатор кодека : 40
Продолжительность : 1 ч. 35 м.
Вид битрейта : Переменный
Битрейт : 128 Кбит/сек
Максимальный битрейт : 138 Кбит/сек
Каналы : 2 канала
Расположение каналов : Front: L R
Частота : 48,0 КГц
Метод сжатия : С потерями
Размер потока : 87,8 Мбайт (12%)
Дата кодирования : UTC 2013-01-23 12:49:17
Дата пометки : UTC 2013-01-23 12:49:18


Трекер:  [ 23-Янв-2013 17:15 ]

  

Скачать .torrent

Размер .torrent файла 15 KB


Размер: 747 MB
Хэш (hash) релиза: a91b5f63c71b58bf421011ed16c77a8a19bef90e

Торренты, похожие на [VIDEO] Судья Дредд Dredd скачать торрент

Форум Название Автор Размер S L Добавлен
Видео (Фильмы/Клипы) ·· [VIDEO] Судья Дредд 3D / Dredd (Пит Трэвис / Pete Travis) [2012, фантастика, боевик, триллер, HDRip] [MP4, 960x] Dub, AVO Сербин, Original, Sub Rus Galfimbul 13107160161.22 GB 0 0 1419452477

23:21

24-Дек-14

Видео (Фильмы/Клипы) ·· [VIDEO] Судья Дредд / Judge Dredd (Дэнни Кэннон / Danny Cannon) [1995, Фантастика, боевик, BDRip] [MP4, 640x] Galfimbul 872487265832 MB 0 0 1356341340

12:29

24-Дек-12

Еще никто не оставлял запись к записи скачать торрент [VIDEO] Судья Дредд Dredd . Будь первым!

!Обратная связь