Confectionary | Yozakura Quartet | IMDb: 8.2 S1E16 Gods Gift - 14 Days

Скачать через торрент музыку UB40 - 5 Album Set - Signing Off Present Arms бесплатно без регистрации torrent

Статистика раздачи
Размер:  1.47 GB   |    Зарегистрирован:  5 лет 5 месяцев   |    .torrent скачан:  54 раза   |   
Раздают:  1  
   
загрузка...
 
Автор Сообщение

Galfimbul

avatar Galfimbul


UB40 / 5 Album Set (5CD)

Жанр: Reggae
Страна-производитель диска: Australia
Год издания: 2012
Издатель (лейбл): EMI
Номер по каталогу: 5099997215325
Страна: England
Аудиокодек: FLAC (*.flac)
Тип рипа: image+.cue
Битрейт аудио: lossless
Продолжительность: 03:54:25
Источник (релизер): Собственный
Наличие сканов в содержимом раздачи: да (PNG, 300dpi, 72Mb)
Amazon | Discogs | Wikipedia | Official page
Об альбоме (сборнике): В состав данного Бокс Сета вошли пять первых студийных альбомов с оригинальными треклистами. Каждый альбом упакован в конверты типа mini LP с оригинальным оформлением.
Studio Albums

01. Tyler - 5:52
02. King - 4:35
03. 12 bar - 4:25
04. Burden of shame - 6:29
05. Adella - 3:28
06. I think it's going to rain today - 3:41
07. 25% - 3:31
08. Food for thought - 4:10
09. Little by little - 3:45
10. Signing off - 4:25
11. Madame Medusa - 12:53
12. Strange fruit - 4:06
13. Reefer madness - 5:09
Exact Audio Copy V1.0 beta 3 from 29. August 2011

EAC extraction logfile from 17. January 2013, 21:49

UB40 / Signing Off

Used drive : ATAPI iHAS124 B Adapter: 2 ID: 0

Read mode : SecureUtilize accurate stream : YesDefeat audio cache : YesMake use of C2 pointers : No

Read offset correction : 6Overread into Lead-In and Lead-Out : NoFill up missing offset samples with silence : YesDelete leading and trailing silent blocks : NoNull samples used in CRC calculations : YesUsed interface : Native Win32 interface for Win NT & 2000

Used output format : User Defined EncoderSelected bitrate : 1024 kBit/sQuality : HighAdd ID3 tag : NoCommand line compressor : C:\Program Files (x86)\Exact Audio Copy\FLAC\FLAC.EXEAdditional command line options : -8 -V -T "ARTIST=%artist%" -T "TITLE=%title%" -T "ALBUM=%albumtitle%" -T "DATE=%year%" -T "TRACKNUMBER=%tracknr%" -T "GENRE=%genre%" -T "PERFORMER=%albuminterpret%" -T "COMPOSER=%composer%" %haslyrics%--tag-from-file=LYRICS="%lyricsfile%"%haslyrics% -T "ALBUMARTIST=%albumartist%" -T "DISCNUMBER=%cdnumber%" -T "TOTALDISCS=%totalcds%" -T "TOTALTRACKS=%numtracks%" -T "COMMENT=%comment%" %source% -o %dest%

TOC of the extracted CD

Track | Start | Length | Start sector | End sector --------------------------------------------------------- 1 | 0:00.00 | 5:51.40 | 0 | 26364 2 | 5:51.40 | 4:35.03 | 26365 | 46992 3 | 10:26.43 | 4:24.45 | 46993 | 66837 4 | 14:51.13 | 6:29.10 | 66838 | 96022 5 | 21:20.23 | 3:28.37 | 96023 | 111659 6 | 24:48.60 | 3:41.30 | 111660 | 128264 7 | 28:30.15 | 3:31.08 | 128265 | 144097 8 | 32:01.23 | 4:10.07 | 144098 | 162854 9 | 36:11.30 | 3:44.50 | 162855 | 179704 10 | 39:56.05 | 4:24.73 | 179705 | 199577 11 | 44:21.03 | 12:52.72 | 199578 | 257549 12 | 57:14.00 | 4:05.65 | 257550 | 275989 13 | 61:19.65 | 5:08.63 | 275990 | 299152

Range status and errors

Selected range

Filename G:\CD\UB40 - Signing Off.wav

Peak level 99.9 % Extraction speed 6.5 X Range quality 100.0 % Test CRC AC251148 Copy CRC AC251148 Copy OK

No errors occurred

AccurateRip summary

Track 1 accurately ripped (confidence 1) [A25AE74F] (AR v1)Track 2 accurately ripped (confidence 1) [0D18F2F6] (AR v1)Track 3 accurately ripped (confidence 1) [7753132E] (AR v1)Track 4 accurately ripped (confidence 1) [E74DB6D2] (AR v1)Track 5 accurately ripped (confidence 1) [FE948AEA] (AR v1)Track 6 accurately ripped (confidence 1) [8C5DC611] (AR v1)Track 7 accurately ripped (confidence 1) [5DAD02A8] (AR v1)Track 8 accurately ripped (confidence 1) [960B7A5C] (AR v1)Track 9 accurately ripped (confidence 1) [99F4C4C9] (AR v1)Track 10 accurately ripped (confidence 1) [452F919E] (AR v1)Track 11 accurately ripped (confidence 1) [D0B447F2] (AR v1)Track 12 accurately ripped (confidence 1) [55A16E7F] (AR v1)Track 13 accurately ripped (confidence 1) [99AA1A35] (AR v1)

All tracks accurately ripped

End of status report

==== Log checksum 9A9BCAF72F4E1BB3BA4CA6355C39AB7AEFD3C3387A639D6665CC9D50D655B06B ====

01. Present arms - 4:08
02. Sardonicus - 4:29
03. Don't let it pass you by - 7:45
04. Wild cat - 3:04
05. One in ten - 4:33
06. Don't slow down - 4:29
07. Silent witness - 4:15
08. Lamb's bread - 4:49
09. Don't walk on the grass - 5:07
10. Dr. X - 5:21
Exact Audio Copy V1.0 beta 3 from 29. August 2011

EAC extraction logfile from 17. January 2013, 22:06

UB40 / Present Arms

Used drive : ATAPI iHAS124 B Adapter: 2 ID: 0

Read mode : SecureUtilize accurate stream : YesDefeat audio cache : YesMake use of C2 pointers : No

Read offset correction : 6Overread into Lead-In and Lead-Out : NoFill up missing offset samples with silence : YesDelete leading and trailing silent blocks : NoNull samples used in CRC calculations : YesUsed interface : Native Win32 interface for Win NT & 2000

Used output format : User Defined EncoderSelected bitrate : 1024 kBit/sQuality : HighAdd ID3 tag : NoCommand line compressor : C:\Program Files (x86)\Exact Audio Copy\FLAC\FLAC.EXEAdditional command line options : -8 -V -T "ARTIST=%artist%" -T "TITLE=%title%" -T "ALBUM=%albumtitle%" -T "DATE=%year%" -T "TRACKNUMBER=%tracknr%" -T "GENRE=%genre%" -T "PERFORMER=%albuminterpret%" -T "COMPOSER=%composer%" %haslyrics%--tag-from-file=LYRICS="%lyricsfile%"%haslyrics% -T "ALBUMARTIST=%albumartist%" -T "DISCNUMBER=%cdnumber%" -T "TOTALDISCS=%totalcds%" -T "TOTALTRACKS=%numtracks%" -T "COMMENT=%comment%" %source% -o %dest%

TOC of the extracted CD

Track | Start | Length | Start sector | End sector --------------------------------------------------------- 1 | 0:00.00 | 4:08.33 | 0 | 18632 2 | 4:08.33 | 4:29.15 | 18633 | 38822 3 | 8:37.48 | 7:45.00 | 38823 | 73697 4 | 16:22.48 | 3:04.00 | 73698 | 87497 5 | 19:26.48 | 4:32.67 | 87498 | 107964 6 | 23:59.40 | 4:28.50 | 107965 | 128114 7 | 28:28.15 | 4:15.08 | 128115 | 147247 8 | 32:43.23 | 4:48.45 | 147248 | 168892 9 | 37:31.68 | 5:07.35 | 168893 | 191952 10 | 42:39.28 | 5:20.55 | 191953 | 216007

Range status and errors

Selected range

Filename G:\CD\UB40 - Present Arms.wav

Peak level 100.0 % Extraction speed 5.7 X Range quality 99.9 % Test CRC 32C7115C Copy CRC 32C7115C Copy OK

No errors occurred

AccurateRip summary

Track 1 accurately ripped (confidence 2) [DBCE5F27] (AR v1)Track 2 accurately ripped (confidence 2) [DF0E20F8] (AR v1)Track 3 accurately ripped (confidence 2) [96646F17] (AR v1)Track 4 accurately ripped (confidence 2) [EDF51BED] (AR v1)Track 5 accurately ripped (confidence 2) [D8819627] (AR v1)Track 6 accurately ripped (confidence 2) [3251EEEF] (AR v1)Track 7 accurately ripped (confidence 2) [3F31C56C] (AR v1)Track 8 accurately ripped (confidence 2) [EDF932EA] (AR v1)Track 9 accurately ripped (confidence 2) [A9CC6520] (AR v1)Track 10 accurately ripped (confidence 2) [843ABA95] (AR v1)

All tracks accurately ripped

End of status report

==== Log checksum A0E89955A7CFD2CAE321DF2AD97AE7BDBF36C0886A1873D7491A550F749B7F80 ====

01. So here I am - 3:55
02. I won't close my eyes - 3:47
03. Forget the cost - 4:23
04. Love is all is alright - 4:57
05. The piper calls the tune - 3:50
06. The key - 5:05
07. Don't do the crime - 4:13
08. Folitician - 4:10
09. The prisoner - 5:58
Exact Audio Copy V1.0 beta 3 from 29. August 2011

EAC extraction logfile from 17. January 2013, 22:21

UB40 / UB44

Used drive : ATAPI iHAS124 B Adapter: 2 ID: 0

Read mode : SecureUtilize accurate stream : YesDefeat audio cache : YesMake use of C2 pointers : No

Read offset correction : 6Overread into Lead-In and Lead-Out : NoFill up missing offset samples with silence : YesDelete leading and trailing silent blocks : NoNull samples used in CRC calculations : YesUsed interface : Native Win32 interface for Win NT & 2000

Used output format : User Defined EncoderSelected bitrate : 1024 kBit/sQuality : HighAdd ID3 tag : NoCommand line compressor : C:\Program Files (x86)\Exact Audio Copy\FLAC\FLAC.EXEAdditional command line options : -8 -V -T "ARTIST=%artist%" -T "TITLE=%title%" -T "ALBUM=%albumtitle%" -T "DATE=%year%" -T "TRACKNUMBER=%tracknr%" -T "GENRE=%genre%" -T "PERFORMER=%albuminterpret%" -T "COMPOSER=%composer%" %haslyrics%--tag-from-file=LYRICS="%lyricsfile%"%haslyrics% -T "ALBUMARTIST=%albumartist%" -T "DISCNUMBER=%cdnumber%" -T "TOTALDISCS=%totalcds%" -T "TOTALTRACKS=%numtracks%" -T "COMMENT=%comment%" %source% -o %dest%

TOC of the extracted CD

Track | Start | Length | Start sector | End sector --------------------------------------------------------- 1 | 0:00.00 | 3:54.38 | 0 | 17587 2 | 3:54.38 | 3:46.50 | 17588 | 34587 3 | 7:41.13 | 4:22.45 | 34588 | 54282 4 | 12:03.58 | 4:57.02 | 54283 | 76559 5 | 17:00.60 | 3:50.18 | 76560 | 93827 6 | 20:51.03 | 5:05.35 | 93828 | 116737 7 | 25:56.38 | 4:12.57 | 116738 | 135694 8 | 30:09.20 | 4:10.13 | 135695 | 154457 9 | 34:19.33 | 5:57.42 | 154458 | 181274

Range status and errors

Selected range

Filename G:\CD\UB40 - UB44.wav

Peak level 96.9 % Extraction speed 5.5 X Range quality 100.0 % Test CRC 146B7350 Copy CRC 146B7350 Copy OK

No errors occurred

AccurateRip summary

Track 1 accurately ripped (confidence 2) [0C1422EB] (AR v1)Track 2 accurately ripped (confidence 2) [31866B52] (AR v1)Track 3 accurately ripped (confidence 2) [AED84F73] (AR v1)Track 4 accurately ripped (confidence 2) [B9400C85] (AR v1)Track 5 accurately ripped (confidence 2) [15AAD40B] (AR v1)Track 6 accurately ripped (confidence 2) [44FA3B2F] (AR v1)Track 7 accurately ripped (confidence 2) [7E1EA460] (AR v1)Track 8 accurately ripped (confidence 2) [E6F5D327] (AR v1)Track 9 accurately ripped (confidence 2) [D15D1A46] (AR v1)

All tracks accurately ripped

End of status report

==== Log checksum 9A6DC9BE44627281475443F2795763AC4E167E7CBB30A22C0F5743BA67EFE714 ====

01. Cherry Oh Baby - 3:19
02. Keep On Moving - 4:38
03. Please Don't Make Me Cry - 3:27
04. Sweet Sensation - 3:42
05. Johnny Too Bad - 5:00
06. Red Red Wine - 5:21
07. Guilty - 3:17
08. She Caught The Train - 3:17
09. Version Girl - 3:28
10. Many Rivers To Cross - 4:33
Exact Audio Copy V1.0 beta 3 from 29. August 2011

EAC extraction logfile from 17. January 2013, 22:38

UB40 / Labour Of Love

Used drive : ATAPI iHAS124 B Adapter: 2 ID: 0

Read mode : SecureUtilize accurate stream : YesDefeat audio cache : YesMake use of C2 pointers : No

Read offset correction : 6Overread into Lead-In and Lead-Out : NoFill up missing offset samples with silence : YesDelete leading and trailing silent blocks : NoNull samples used in CRC calculations : YesUsed interface : Native Win32 interface for Win NT & 2000

Used output format : User Defined EncoderSelected bitrate : 1024 kBit/sQuality : HighAdd ID3 tag : NoCommand line compressor : C:\Program Files (x86)\Exact Audio Copy\FLAC\FLAC.EXEAdditional command line options : -8 -V -T "ARTIST=%artist%" -T "TITLE=%title%" -T "ALBUM=%albumtitle%" -T "DATE=%year%" -T "TRACKNUMBER=%tracknr%" -T "GENRE=%genre%" -T "PERFORMER=%albuminterpret%" -T "COMPOSER=%composer%" %haslyrics%--tag-from-file=LYRICS="%lyricsfile%"%haslyrics% -T "ALBUMARTIST=%albumartist%" -T "DISCNUMBER=%cdnumber%" -T "TOTALDISCS=%totalcds%" -T "TOTALTRACKS=%numtracks%" -T "COMMENT=%comment%" %source% -o %dest%

TOC of the extracted CD

Track | Start | Length | Start sector | End sector --------------------------------------------------------- 1 | 0:00.00 | 3:18.60 | 0 | 14909 2 | 3:18.60 | 4:37.65 | 14910 | 35749 3 | 7:56.50 | 3:26.60 | 35750 | 51259 4 | 11:23.35 | 3:41.40 | 51260 | 67874 5 | 15:05.00 | 5:00.22 | 67875 | 90396 6 | 20:05.22 | 5:21.05 | 90397 | 114476 7 | 25:26.27 | 3:16.65 | 114477 | 129241 8 | 28:43.17 | 3:17.18 | 129242 | 144034 9 | 32:00.35 | 3:28.22 | 144035 | 159656 10 | 35:28.57 | 4:33.18 | 159657 | 180149

Range status and errors

Selected range

Filename G:\CD\UB40 - Labour Of Love.wav

Peak level 99.2 % Extraction speed 5.4 X Range quality 99.9 % Test CRC 2DEF3ABB Copy CRC 2DEF3ABB Copy OK

No errors occurred

AccurateRip summary

Track 1 accurately ripped (confidence 2) [2E7F911A] (AR v1)Track 2 accurately ripped (confidence 2) [15707955] (AR v1)Track 3 accurately ripped (confidence 2) [467E18FA] (AR v1)Track 4 accurately ripped (confidence 2) [F3B1FE14] (AR v1)Track 5 accurately ripped (confidence 2) [0D29223E] (AR v1)Track 6 accurately ripped (confidence 2) [F3865FED] (AR v1)Track 7 accurately ripped (confidence 2) [68758C88] (AR v1)Track 8 accurately ripped (confidence 2) [4229ED99] (AR v1)Track 9 accurately ripped (confidence 2) [1B73A8BD] (AR v1)Track 10 accurately ripped (confidence 2) [8BBCD75F] (AR v1)

All tracks accurately ripped

End of status report

==== Log checksum 28AD2146590D174C901B596B83ABAA30AF558066B722AE220018DFD4B12CD520 ====

01. Riddle Me - 3:58
02. As Always You Were Wrong Again - 3:38
03. If It Happens Again - 3:45
04. D.U.B. - 4:52
05. The Pillow - 3:29
06. Nkomo a Go Go - 3:06
07. Seasons - 3:48
08. You're Not an Army - 3:46
09. I'm Not Fooled So Easily - 4:14
10. Your Eyes Were Open - 5:00
Exact Audio Copy V1.0 beta 3 from 29. August 2011

EAC extraction logfile from 17. January 2013, 23:05

UB40 / Geffery Morgan

Used drive : ATAPI iHAS124 B Adapter: 2 ID: 0

Read mode : SecureUtilize accurate stream : YesDefeat audio cache : YesMake use of C2 pointers : No

Read offset correction : 6Overread into Lead-In and Lead-Out : NoFill up missing offset samples with silence : YesDelete leading and trailing silent blocks : NoNull samples used in CRC calculations : YesUsed interface : Native Win32 interface for Win NT & 2000

Used output format : User Defined EncoderSelected bitrate : 1024 kBit/sQuality : HighAdd ID3 tag : NoCommand line compressor : C:\Program Files (x86)\Exact Audio Copy\FLAC\FLAC.EXEAdditional command line options : -8 -V -T "ARTIST=%artist%" -T "TITLE=%title%" -T "ALBUM=%albumtitle%" -T "DATE=%year%" -T "TRACKNUMBER=%tracknr%" -T "GENRE=%genre%" -T "PERFORMER=%albuminterpret%" -T "COMPOSER=%composer%" %haslyrics%--tag-from-file=LYRICS="%lyricsfile%"%haslyrics% -T "ALBUMARTIST=%albumartist%" -T "DISCNUMBER=%cdnumber%" -T "TOTALDISCS=%totalcds%" -T "TOTALTRACKS=%numtracks%" -T "COMMENT=%comment%" %source% -o %dest%

TOC of the extracted CD

Track | Start | Length | Start sector | End sector --------------------------------------------------------- 1 | 0:00.33 | 3:58.05 | 33 | 17887 2 | 3:58.38 | 3:37.57 | 17888 | 34219 3 | 7:36.20 | 3:44.50 | 34220 | 51069 4 | 11:20.70 | 4:51.73 | 51070 | 72967 5 | 16:12.68 | 3:29.25 | 72968 | 88667 6 | 19:42.18 | 3:06.30 | 88668 | 102647 7 | 22:48.48 | 3:48.02 | 102648 | 119749 8 | 26:36.50 | 3:46.33 | 119750 | 136732 9 | 30:23.08 | 4:14.37 | 136733 | 155819 10 | 34:37.45 | 4:59.53 | 155820 | 178297

Range status and errors

Selected range

Filename G:\CD\UB40 - Geffery Morgan.wav

Peak level 99.8 % Extraction speed 5.5 X Range quality 100.0 % Test CRC 35E27B66 Copy CRC 35E27B66 Copy OK

No errors occurred

AccurateRip summary

Track 1 accurately ripped (confidence 2) [45DD4814] (AR v1)Track 2 accurately ripped (confidence 2) [18FB4148] (AR v1)Track 3 accurately ripped (confidence 2) [76041652] (AR v1)Track 4 accurately ripped (confidence 2) [6FF584FC] (AR v1)Track 5 accurately ripped (confidence 2) [F8D7E433] (AR v1)Track 6 accurately ripped (confidence 2) [6C7A863F] (AR v1)Track 7 accurately ripped (confidence 2) [E7B27A9A] (AR v1)Track 8 accurately ripped (confidence 2) [5CBDCE01] (AR v1)Track 9 accurately ripped (confidence 2) [1CE8D862] (AR v1)Track 10 accurately ripped (confidence 2) [02D6CAB4] (AR v1)

All tracks accurately ripped

End of status report

==== Log checksum 7ABC68A1F3C656EAEC802E041AEEBCCF16D82276FF8EE2CFFC0738D8A1ADB69E ====


Трекер:  [ 18-Янв-2013 23:29 ]

  

Скачать .torrent

Размер .torrent файла 18 KB


Размер: 1.47 GB
Хэш (hash) релиза: 72c8084f3e36585c5e22e843b14be12ddfb2607c

Еще никто не оставлял запись к записи скачать торрент UB40 - 5 Album Set - Signing Off Present Arms . Будь первым!

!Обратная связь