Télécharger Part 1 | Generation Kill | The Last Ship saison 2 streaming

Скачать через торрент [SERIAL] Легавый Серии: 1-15 из 24 бесплатно русская версия torrent активатор

Статистика раздачи
Размер:  2.16 GB   |    Зарегистрирован:  5 лет 6 месяцев   |    .torrent скачан:  41 раз   |   
Раздают:  1  
   
загрузка...
 
Автор Сообщение

Galfimbul

avatar Galfimbul


Легавый
Год выпуска: 2012

Страна: Россия
Жанр: детектив
Продолжительность: 24 х ~ 00:45:00
Перевод: Не требуется
Русские субтитры: нет
Режиссер: Рустам Уразаев
В ролях: Эдуард Флёров Михаил Павлик Николай Козак Оксана Гуляева Анастасия Макеева Елена Коровчук Анатолий Кот Игорь Филиппов Александр Резалин Михаил Горевой и др.

Описание: Фронтовой разведчик, старший лейтенант Юрий Козырев, в последние дни войны попадает в плен и получает за это срок. В результате пересмотра дела в 1948-м, Козырев выходит из лагеря полностью оправданным и едет домой в родной рабочий городок под Москвой. Там его ждут перемены: отец пропал без вести на фронте, мать умерла, а любимая девушка — Лариса — вышла замуж за обеспеченного работника торговли Волынского.
Однажды на склад, куда Юрий устраивается работать охранником, совершается нападение. Главным подозреваемым по делу становится Козырев — на него начинается настоящая охота. Козырев скрывается от милиции и решает первым найти и обезвредить настоящего организатора ограбления. В награду за поимку преступника, сам Берия распоряжается назначить Козырева на должность инспектора уголовного розыска. Это назначение принесет ему новые расследования, и поставит его в рамки опасного треугольника — между бывшими товарищами по оружию, коллегами по службе и уголовниками…

Качество: SATRip
Формат: MP4
Видео кодек: H.264
Аудио кодек: AAC
Видео: AVC, 320x176 (16/9), 25.000 fps, 360 Kbps (0.260 bit/pixel)
Аудио: AAC LC, 44.1 KHz, 2 ch, 96.0 Kbps, CBR

Добавлено 15 из 24 серий. Следите за раздачей.
GeneralComplete name : \\Legaviy.01.mp4Format : MPEG-4Format profile : Base MediaCodec ID : isomFile size : 149 MiBDuration : 44mn 40sOverall bit rate : 467 KbpsEncoded date : UTC 2013-01-08 11:46:49Tagged date : UTC 2013-01-08 11:46:49Writing application : Lavf54.59.103Copyright : aleksd72

VideoID : 1Format : AVCFormat/Info : Advanced Video CodecFormat profile : <a href="mailto:[email protected]" class="postLink">[email protected]</a> settings, CABAC : NoFormat settings, ReFrames : 1 frameCodec ID : avc1Codec ID/Info : Advanced Video CodingDuration : 44mn 40sBit rate : 360 KbpsWidth : 320 pixelsHeight : 176 pixelsDisplay aspect ratio : 16:9Original display aspect ratio : 16:9Frame rate mode : ConstantFrame rate : 25.000 fpsColor space : YUVChroma subsampling : 4:2:0Bit depth : 8 bitsScan type : ProgressiveBits/(Pixel*Frame) : 0.256Stream size : 117 MiB (78%)Writing library : x264 core 129 r2230Encoding settings : cabac=0 / ref=1 / deblock=1:0:0 / analyse=0x1:0x111 / me=hex / subme=5 / psy=1 / psy_rd=1.00:0.00 / mixed_ref=0 / me_range=16 / chroma_me=1 / trellis=1 / 8x8dct=0 / cqm=0 / deadzone=21,11 / fast_pskip=1 / chroma_qp_offset=0 / threads=3 / lookahead_threads=1 / sliced_threads=0 / nr=0 / decimate=1 / interlaced=0 / bluray_compat=0 / constrained_intra=0 / bframes=0 / weightp=0 / keyint=250 / keyint_min=25 / scenecut=40 / intra_refresh=0 / rc_lookahead=40 / rc=abr / mbtree=1 / bitrate=360 / ratetol=1.0 / qcomp=0.60 / qpmin=3 / qpmax=69 / qpstep=4 / vbv_maxrate=1500 / vbv_bufsize=1500 / nal_hrd=none / ip_ratio=1.40 / aq=1:1.00Encoded date : UTC 2013-01-08 11:46:49Tagged date : UTC 2013-01-08 11:46:49

AudioID : 2Format : AACFormat/Info : Advanced Audio CodecFormat profile : LCCodec ID : 40Duration : 44mn 40sDuration_LastFrame : -7msBit rate mode : ConstantBit rate : 96.0 KbpsChannel(s) : 2 channelsChannel positions : Front: L RSampling rate : 44.1 KHzCompression mode : LossyStream size : 30.7 MiB (21%)Encoded date : UTC 2013-01-08 11:46:49Tagged date : UTC 2013-01-08 11:46:49


Трекер:  [ 08-Янв-2013 23:02 ]

  

Скачать .torrent

Размер .torrent файла 12 KB


Размер: 2.16 GB
Хэш (hash) релиза: 5e6174aaa909532ad74bdaab27ff3288907dabc0

Еще никто не оставлял запись к записи скачать торрент [SERIAL] Легавый Серии: 1-15 из 24 . Будь первым!

!Обратная связь