Eps19 Botched Season 4 | Seinfeld | Battlestar Galactica

Скачать через торрент [SERIAL] Красавица и чудовище Beauty and the Beast бесплатно русская версия torrent активатор

Статистика раздачи
Размер:  862 MB   |    Зарегистрирован:  5 лет 6 месяцев   |    .torrent скачан:  39 раз   |   
Раздают:  1  
   
загрузка...
 
Автор Сообщение

Galfimbul

avatar Galfimbul


Красавица и чудовище / Beauty and the Beast

Год выпуска: 2012

Страна: США
Жанр: Детектив, мелодрама
Продолжительность: 00:42:00
Перевод: Профессиональный (многоголосый, закадровый, LostFilm)
Русские субтитры: нет
Режиссер: Steven A. Adelson
В ролях: Kristin Kreuk, Jay Ryan, Max Brown, Austin Basis, Nina Lisandrello, Brian White и другие
Описание: Детектив убойного отдела Кэтрин Чандлер работает в паре с доктором Келлером, бывшим солдатом американской армии. Келлер, в результате сомнительных медицинских экспериментов, становится обладателдем запредельной физической силы. Вместе им предстоит распутать самые сложные и жестокие преступления Нью-Йорка.
Качество: WEB-DLRip
Формат: MP4
Видео кодек: H.264
Аудио кодек: AAC
Видео: MPEG4 Video (H264); 480x272 (16:9); 449 kbps; 24.00fps
Аудио: AAC 44100Hz stereo 126 kbps
1). Пилот
2). Соблюдайте осторожность
3). Всё включено
4). Основной инстинкт
5). Возвращение Сатурна
6). ...
ОбщееПолное имя : ...\Beauty and the Beast [season 1, 480x272, mp4]\Beauty.and.the.Beast.S01E01.mp4Формат : MPEG-4Профиль формата : Base Media / Version 2Идентификатор кодека : mp42Размер файла : 175 МбайтПродолжительность : 42 м.Режим общего битрейта : ПеременныйОбщий поток : 571 Кбит/секДата кодирования : UTC 2013-01-03 05:02:31Дата пометки : UTC 2013-01-03 05:02:32Программа кодирования : mp4creator 1.4.4

ВидеоИдентификатор : 1Формат : AVCФормат/Информация : Advanced Video CodecПрофиль формата : <a href="mailto:[email protected]Параметр" class="postLink">[email protected]Параметр</a> CABAC формата : НетПараметр ReFrames формата : 2 кадраИдентификатор кодека : avc1Идентификатор кодека/Информация : Advanced Video CodingПродолжительность : 42 м.Вид битрейта : ПеременныйБитрейт : 444 Кбит/секШирина : 480 пикселейВысота : 272 пикселяСоотношение сторон : 16:9Режим частоты кадров : ПостоянныйЧастота кадров : 24,000 кадра/секЦветовое пространство : YUVСубдискретизация насыщенности : 4:2:0Битовая глубина : 8 битТип развёртки : ПрогрессивнаяБит/(Пиксели*Кадры) : 0.142Размер потока : 136 Мбайт (78%)Язык : EnglishДата кодирования : UTC 2013-01-03 05:02:31Дата пометки : UTC 2013-01-03 05:02:32

АудиоИдентификатор : 2Формат : AACФормат/Информация : Advanced Audio CodecПрофиль формата : LCИдентификатор кодека : 40Продолжительность : 42 м.Продолжительность оригинала : 42 м.Вид битрейта : ПеременныйБитрейт : 125 Кбит/секМаксимальный битрейт : 283 Кбит/секКаналы : 2 каналаРасположение каналов : Front: L RЧастота : 44,1 КГцМетод сжатия : С потерямиРазмер потока : 38,3 Мбайт (22%)Размер потока оригинала : 38,3 Мбайт (22%)Язык : EnglishДата кодирования : UTC 2013-01-03 05:02:32Дата пометки : UTC 2013-01-03 05:02:32


Трекер:  [ 05-Янв-2013 00:29 ]

  

Скачать .torrent

Размер .torrent файла 17 KB


Размер: 862 MB
Хэш (hash) релиза: 0d87aba9c7085b7963a487d651385e9261e15a0d

Еще никто не оставлял запись к записи скачать торрент [SERIAL] Красавица и чудовище Beauty and the Beast . Будь первым!

!Обратная связь